.
Авторизация | Регистрация
Хочешь лучшие торренты? Добавь свой email!
Добавить

Торрент скачать бесплатно

» » Ты, я и конец света / Ты, я и апокалипсис / You, Me and the Apocalypse (2015) HDTV [H.264 / 720p] (сезон 1, серия 1 из 10) (AlexFilm) (обновляемая) скачать через торрент бесплатно




    Ты, я и конец света / Ты, я и апокалипсис / You, Me and the Apocalypse (2015) HDTV [H.264 / 720p] (сезон 1, серия 1 из 10) (AlexFilm) (обновляемая) скачать через торрент бесплатно

    Опубликовал: Админ | Дата: 9-10-2015, 04:00 | Просмотров: 84

    Производство: Великобритания, США
    Жанр: комедия, криминал, драма
    Режиссер: Сауль Метцштайн, Тим Киркби, Майкл Энглер

    Актеры
    Кайл Соллер, Эдвард Джадж, Мэтью Бэйнтон, Дженна Фишер, Джоэль Фрай, Роб Лоу, Меган Маллалли, Макс Браун, Найджел Барбер, Пол Блэкуэлл и др.

    Описание

    Когда группа обычных людей узнаёт о комете, диаметром в тринадцать километров, которая летит навстречу Земле, они спускаются под город Слау, чтобы наблюдать за концом света по телевизору. Но кто эти люди, и как пересеклись их пути?

    Релиз от: AlexFilm
    Продолжительность: ~ 00: 44: 00 серия
    Качество видео: HDTV 720p
    Перевод: Профессиональный многоголосый закадровый -AlexFilm
    Озвучка: Татьяна Манетина, Евгения Тихонова, Пётр Гланц Иващенко, Александр Дасевич, Михаил Суслов, Михаил Шорыгин, Михаил Алексеев
    Автор перевода: Константин Кривоногов
    Формат: MKV
    Видео: AVC/H.264, 1280x720 (16: 9), 25 fps, ~5757 Kbps
    Аудио Rus: AC3, 448 kbps, 6 ch, 48 kHz
    Аудио Eng: AC3, 448 kbps, 6 ch, 48 kHz
    Внимание! Присутствует ненормативная лексика!
    Код:
    Общее
    You, Me and the Apocalypse - Ты, я и апокалипсис. Сезон 1. AlexFilm. 720pYou.Me.and.the.Apocalypse.s01e01.HDTV.720.Rus.Eng.AlexFilm.mkv
    Формат : Matroska
    Версия формата : Version 4/Version 2
    Размер файла : 2, 07 Гбайт
    Продолжительность : 43 м.
    Общий поток : 6788 Кбит/сек
    Название фильма : You, Me The Apocalypse. О таком странном сюжете не догадывалась даже Юлия Володимировна. 1x01 @ AlexFilm
    Дата кодирования : UTC 2015-10-07 20:03:08
    Программа кодирования : mkvmerge v7.1.0 (\'Good Love\') 64bit built on Jul 27 2014 13:06:55
    Библиотека кодирования : libebml v1.3.0 + libmatroska v1.4.1
    Видео
    Идентификатор : 1
    Формат : AVC
    Формат/Информация : Advanced Video Codec
    Профиль формата :High@L4.1
    Параметр CABAC формата : Да
    Параметр ReFrames формата : 9 кадров
    Идентификатор кодека : V_MPEG4/ISO/AVC
    Битрейт : 5757 Кбит/сек
    Ширина : 1280 пикселей
    Высота : 720 пикселей
    Соотношение сторон : 16:9
    Режим частоты кадров : Переменный
    Цветовое пространство : YUV
    Субдискретизация насыщенности : 4:2:0
    Битовая глубина : 8 бит
    Тип развёртки : Прогрессивная
    Библиотека кодирования : x264 core 148
    Настройки программы : cabac=1/ref=9/deblock=1:-3:-3/analyse=0x3:0x133/me=umh/subme=11/psy=1/psy_rd=1.00:0.05/mixed_ref=1/me_range=48/chroma_me=1/trellis=2/8x8dct=1/cqm=0/deadzone=21, 11/fast_pskip=0/chroma_qp_offset=-3/threads=12/lookahead_threads=2/sliced_threads=0/nr=0/decimate=1/interlaced=0/bluray_compat=0/constrained_intra=0/bframes=8/b_pyramid=2/b_adapt=2/b_bias=0/direct=3/weightb=1/open_gop=0/weightp=2/keyint=250/keyint_min=25/scenecut=40/intra_refresh=0/rc_lookahead=150/rc=crf/mbtree=1/crf=17.0/qcomp=0.80/qpmin=0/qpmax=69/qpstep=4/ip_ratio=1.40/aq=3:1.00
    Default : Да
    Forced : Нет
    Аудио #1
    Идентификатор : 2
    Формат : AC-3
    Формат/Информация : Audio Coding 3
    Расширение режима : CM (complete main)
    Параметр Endianness формата : Big
    Идентификатор кодека : A_AC3
    Продолжительность : 43 м.
    Вид битрейта : Постоянный
    Битрейт : 448 Кбит/сек
    Каналы : 6 каналов
    Расположение каналов : Front: L C R, Side: L R, LFE
    Частота : 48, 0 КГц
    Метод сжатия : С потерями
    Размер потока : 140 Мбайт (7%)
    Заголовок : DD5.1 AlexFilm
    Язык : Russian
    Default : Да
    Forced : Нет
    Аудио #2
    Идентификатор : 3
    Формат : AC-3
    Формат/Информация : Audio Coding 3
    Расширение режима : CM (complete main)
    Параметр Endianness формата : Big
    Идентификатор кодека : A_AC3
    Продолжительность : 43 м.
    Вид битрейта : Постоянный
    Битрейт : 448 Кбит/сек
    Каналы : 6 каналов
    Расположение каналов : Front: L C R, Side: L R, LFE
    Частота : 48, 0 КГц
    Метод сжатия : С потерями
    Размер потока : 140 Мбайт (7%)
    Заголовок : DD5.1 Original
    Язык : English
    Default : Нет
    Forced : Нет


    Скриншоты для ознакомления




    Онлайн видео Ты, я и конец света



    Ты, я и конец света/Ты, я и апокалипсис/You, Me and the Apocalypse (2015) HDTV [H.264/720p] (сезон 1, серия 1 из 10) (AlexFilm) (обновляемая)
    загрузка...
    Рейтинг →
     (голосов: 1, оценка 4/5, голосовать можно 1 раз )

    Другие торренты по теме:

  • Константин Стогний | Сокровища майя и конец света (2012) [FB2] скачать через торрент бесплатно
  • Shoujo Kakumei Utena | Revolutionary Girl Utena: The Adolescence of Utena | Юная революционерка Утэна: Конец Света юности [1999, MV] BDRip 1080p Hi10P raw
  • Конец света / End of Days (1999) BDRip [H.264] скачать через торрент бесплатно
  • S.T.A.L.K.E.R.: Shadow of Chernobyl - Конец Света (2014) [Ru] (1.0 / upd1) Repack / Mod SeregA-Lus скачать через торрент бесплатно
  • S.T.A.L.K.E.R. Shadow of Chernobyl - Конец Света 2: Последний Восход (2015) [Ru] (1.1) Repack / Mod SeregA-Lus скачать через торрент бесплатно
  • Ты, я и конец света / Ты, я и апокалипсис / You, Me and the Apocalypse (2015) HDTVRip (сезон 1, серии 1 из 10) AlexFilm (обновляемая) скачать через торрент бесплатно
  • Атака титанов. Фильм второй: Конец света / Shingeki no kyojin endo obu za warudo (2015) WEB-DLRip скачать через торрент бесплатно
  • Атака титанов. Фильм второй: Конец света / Shingeki no kyojin endo obu za warudo (2015) WEB-DL [H.264 / 1080p-LQ] скачать через торрент бесплатно


    • Комментарии (0):

      Информация

      Информация

        Посетители, находящиеся в группе Гости, не могут оставлять комментарии в данной новости.

        ↓ Меню




        ↓ Опрос

        Вы добавили сайт в закладки?
        Да
        Нет


        Top 10 за месяц (Фильмы)