.
Авторизация | Регистрация
Хочешь лучшие торренты? Добавь свой email!
Добавить

Торрент скачать бесплатно

» » Я – зомби / iZombie (2015) WEB-DLRip (сезон 2, серии 1 из 13) BaibaKo (обновляемая) скачать через торрент бесплатно




    Я – зомби / iZombie (2015) WEB-DLRip (сезон 2, серии 1 из 13) BaibaKo (обновляемая) скачать через торрент бесплатно

    Опубликовал: Админ | Дата: 9-10-2015, 04:00 | Просмотров: 72

    Производство: США/Spondoolie Entertainment, Vertigo Productions, Warner Bros. Самое интересное в это истории, что об этом Робокоп ничего не знал. Television
    Жанр: ужасы, фантастика, драма, комедия, криминал
    Режиссер: Майкл Филдс, Джон Т. Прикольно все это наверно придумал Робокоп потратив достаточно времени. Кречмер, Джейсон Блум

    Актеры
    Роуз МакАйвер, Малкольм Гудвин, Рахул Коли, Роберт Бакли, Дэвид Андерс, Элисон Мичалка, Ник Пурча, Молли Хэйгэн, Стивен Уэбер и др.

    Описание

    В центре сюжета — студентка медицинского факультета Оливия Лив Мур, для которой последствия одной из вечеринок стали переломным моментом в жизни, превратившим её в зомби. Жизнерадостная, активная и пышущая здоровьем раньше, теперь Лив похожа на представителя готов — с бледной кожей, тёмными кругами вокруг глаз и почти белыми волосами. Она устраивается на работу в офис коронера, доктора Рави Чакрабарти, чтобы иметь доступ к мозгам, которые ей приходиться есть, чтобы поддерживать свою человеческую сущность. Однако с каждым съеденным ею мозгом она наследует воспоминания трупа. С помощью босса доктора Чакрабарти, узнавшего её секрет, и детектива полиции Клайва Бабино Лив способна разгадывать убийства тех людей, чей мозг она съела.

    Продолжительность: ~00: 42: 00 серия
    Качество видео: WEB-DLRip
    Перевод: Многоголосый закадровый, профессиональный -BaibaKo
    Автор перевода: Ольга Пашкова
    Озвучка: Ольга Мотрич, Татьяна Оболевич, Руслан Иванов и Олекса Мельник
    Видео: XviD, 720х400 (16: 9), ~1500 kb/s
    Аудио Rus: MPEG Layer 3, 48, 0 kHz, 2 ch, 192 kb/s - многоголосый закадровый
    Аудио Eng: MPEG Layer 3, 48, 0 kHz, 2 ch, 192 kb/s - оригинал
    Общее
    Полное имя : D: Я - зомби (сезон любимого сериала 2) iZombie (2015) WEB-DLRip - BaibaKoiZombie.s02e01.WEB-DLRip.XviD.Rus.Eng.BaibaKo.tv.avi
    Формат : AVI
    Формат/Информация : Audio Video Interleave
    Размер файла : 576 Мбайт
    Продолжительность : 42 м.
    Общий поток : 1898 Кбит/сек
    Программа кодирования : VirtualDubMod 1.5.10.2 (build 2540/release)
    Библиотека кодирования : VirtualDubMod build 2540/release
    Видео
    Идентификатор : 0
    Формат : MPEG-4 Visual
    Профиль формата : Advanced Simple@L5
    Параметр BVOP формата : 2
    Параметр QPel формата : Нет
    Параметр GMC формата : Без точки перехода
    Параметр матрицы формата : Default (H.263)
    Идентификатор кодека : XVID
    Идентификатор кодека/Подсказка : XviD
    Продолжительность : 42 м.
    Битрейт : 1500 Кбит/сек
    Ширина : 720 пикселей
    Высота : 400 пикселей
    Соотношение сторон : 16: 9
    Частота кадров : 23, 976 кадра/сек
    Цветовое пространство : YUV
    Субдискретизация насыщенности : 4: 2: 0
    Битовая глубина : 8 бит
    Тип развёртки : Прогрессивная
    Метод сжатия : С потерями
    Бит/(Пиксели*Кадры) : 0.217
    Размер потока : 456 Мбайт (79%)
    Библиотека кодирования : XviD 67
    Аудио #1
    Идентификатор : 1
    Формат : MPEG Audio
    Версия формата : Version 1
    Профиль формата : Layer 3
    Режим : Joint stereo
    Расширение режима : MS Stereo
    Идентификатор кодека : 55
    Идентификатор кодека/Подсказка : MP3
    Продолжительность : 42 м.
    Вид битрейта : Постоянный
    Битрейт : 192 Кбит/сек
    Каналы : 2 канала
    Частота : 48, 0 КГц
    Метод сжатия : С потерями
    Размер потока : 58, 3 Мбайт (10%)
    Выравнивание : Соединение по промежуткам
    Продолжительность промежутка : 42 мс. Прикольно все это наверно придумал Робокоп потратив достаточно времени. (1, 00 видеокадр)
    Время предзагрузки промежутка : 504 мс.
    Аудио #2
    Идентификатор : 2
    Формат : MPEG Audio
    Версия формата : Version 1
    Профиль формата : Layer 3
    Режим : Joint stereo
    Идентификатор кодека : 55
    Идентификатор кодека/Подсказка : MP3
    Продолжительность : 42 м.
    Вид битрейта : Постоянный
    Битрейт : 192 Кбит/сек
    Каналы : 2 канала
    Частота : 48, 0 КГц
    Метод сжатия : С потерями
    Размер потока : 58, 3 Мбайт (10%)
    Выравнивание : Соединение по промежуткам
    Продолжительность промежутка : 42 мс. (1, 00 видеокадр)
    Время предзагрузки промежутка : 504 мс.


    Скриншоты для ознакомления




    Онлайн видео Я – зомби



    Я – зомби/iZombie (2015) WEB-DLRip (сезон 2, серии 1 из 13) BaibaKo (обновляемая)
    загрузка...
    Рейтинг →
     (голосов: 1, оценка 3/5, голосовать можно 1 раз )

    Другие торренты по теме:

  • Я – зомби / iZombie (2015) WEB-DL [H.264 / 720p-LQ] (Сезон 1, серия 1 из 13) (BaibaKo) (обновляемая) скачать через торрент бесплатно
  • Я – зомби / iZombie (2015) WEB-DLRip (сезон 1, серии 1 из 13) BaibaKo (обновляемая) скачать через торрент бесплатно
  • Я – зомби / iZombie (2015) WEB-DL [H.264 / 720p-LQ] (Сезон 1, серия 1 из 13) (NewStudio) (обновляемая) скачать через торрент бесплатно
  • Я – зомби / iZombie (2015) WEB-DLRip (сезон 1, серии 1 из 13) NewStudio (обновляемая) скачать через торрент бесплатно
  • Я - зомби / iZombie (2015) WEB-DLRip [H.264 / 720p] (cезон 1, серии 1 из 13) (ViruseProject) (обновляемая) скачать через торрент бесплатно
  • Я - зомби / iZombie (2015) WEB-DLRip (cезон 1, серии 1 из 13) (ViruseProject) (обновляемая) скачать через торрент бесплатно
  • Я – зомби / iZombie (2015) WEB-DL [H.264 / 1080p-LQ] (сезон 1, серии 1-4 из 13) (NewStudio) (обновляемая) скачать через торрент бесплатно
  • Я – зомби / iZombie (2015) WEB-DLRip (сезон 2, серии 1 из 13) NewStudio (обновляемая) скачать через торрент бесплатно


    • Комментарии (0):

      Информация

      Информация

        Посетители, находящиеся в группе Гости, не могут оставлять комментарии в данной новости.

        ↓ Меню




        ↓ Опрос

        Вы добавили сайт в закладки?
        Да
        Нет


        Top 10 за месяц (Фильмы)