.
Авторизация | Регистрация
Хочешь лучшие торренты? Добавь свой email!
Добавить

Торрент скачать бесплатно

» » Американская история ужасов / American Horror Story (2015) HDTVRip (сезон 5, серии 1 из 13) Новамедиа (обновляемая) скачать через торрент бесплатно




    Американская история ужасов / American Horror Story (2015) HDTVRip (сезон 5, серии 1 из 13) Новамедиа (обновляемая) скачать через торрент бесплатно

    Опубликовал: Админ | Дата: 9-10-2015, 04:00 | Просмотров: 184840

    Производство: США/Brad Falchuk Teley-Vision, Ryan Murphy Productions, 20th Century Fox Television
    Жанр: ужасы, триллер, драма
    Режиссер: Брэдли Букер, Райан Мерфи, Майкл Гои

    Актеры
    Эван Питерс, Сара Полсон, Дэнис О’Хэр, Джессика Лэнг, Фрэнсис Конрой, Кэти Бейтс, Анджела Бассетт, Лили Рэйб, Эмма Робертс, Финн Уиттрок и др.

    Описание

    Американский телесериал-антология в жанре хоррор-триллера. Сюжеты разных сезон любимого сериалаов связаны между собой только мистической тематикой и словно облаком суровым идеально выдержанной стилистикой триллера, актеры в них остаются прежними, выполняя роль объединяющего звена.
    Пятый сезон любимого сериала Американской истории ужасов выходит в эфир с подзаголовком Отель (Hotel). Герои пятого сезон любимого сериалаа сталкиваются с темными силами в пределах одной шикарной гостиницы.

    Продолжительность: ~01: 00: 00 серия
    Качество видео: HDTVRip
    Перевод: Многоголосый закадровый, профессиональный -студия Новамедиа по заказу Амедиа
    Видео: XviD, 720x400 (16: 9), ~1430 kb/s
    Аудио Rus: AC-3, 48, 0 kHz, 2 ch, 192 kb/s — многоголосый закадровый
    Общее
    Полное имя : D: Американская история ужасов (сезон любимого сериала 5) American Horror Story (2015) HDTVRip - AmediaAHS.Hotel.S05E01.XviD.Amedia.qqss44.avi
    Формат : AVI
    Формат/Информация : Audio Video Interleave
    Размер файла : 698 Мбайт
    Продолжительность : 59 м.
    Общий поток : 1631 Кбит/сек
    Программа кодирования : VirtualDubMod 1.5.10.3 |www.virtualdub-fr.org|| (build 2550/release)
    Библиотека кодирования : VirtualDubMod build 2550/release
    Видео
    Идентификатор : 0
    Формат : MPEG-4 Visual
    Профиль формата : Advanced Simple@L5
    Параметр BVOP формата : 2
    Параметр QPel формата : Нет
    Параметр GMC формата : Без точки перехода
    Параметр матрицы формата : Default (MPEG)
    Идентификатор кодека : XVID
    Идентификатор кодека/Подсказка : XviD
    Продолжительность : 59 м.
    Битрейт : 1429 Кбит/сек
    Ширина : 720 пикселей
    Высота : 400 пикселей
    Соотношение сторон : 16: 9
    Частота кадров : 25, 000 кадров/сек
    Цветовое пространство : YUV
    Субдискретизация насыщенности : 4: 2: 0
    Битовая глубина : 8 бит
    Тип развёртки : Прогрессивная
    Метод сжатия : С потерями
    Бит/(Пиксели*Кадры) : 0.198
    Размер потока : 611 Мбайт (88%)
    Библиотека кодирования : XviD 73
    Аудио
    Идентификатор : 1
    Формат : AC-3
    Формат/Информация : Audio Coding 3
    Расширение режима : CM (complete main)
    Параметр Endianness формата : Big
    Идентификатор кодека : 2000
    Продолжительность : 59 м.
    Вид битрейта : Постоянный
    Битрейт : 192 Кбит/сек
    Каналы : 2 канала
    Расположение каналов : Front: L R
    Частота : 48, 0 КГц
    Метод сжатия : С потерями
    Размер потока : 82, 2 Мбайт (12%)
    Выравнивание : Разделение по промежуткам
    Продолжительность промежутка : 40 мс. (1, 00 видеокадр)
    Время предзагрузки промежутка : 500 мс.


    Скриншоты для ознакомления




    Онлайн видео Американская история ужасов



    Американская история ужасов/American Horror Story (2015) HDTVRip (сезон 5, серии 1 из 13) Новамедиа (обновляемая)
    загрузка...
    Рейтинг →
     (голосов: 1, оценка 3/5, голосовать можно 1 раз )

    Другие торренты по теме:

  • Американская история ужасов / American Horror Story (2014) WEB-DLRip (сезон 4, серии 1 из ) LostFilm (oбновляемая) скачать через торрент бесплатно
  • Американская история ужасов: Фрик-шоу / American Horror Story: Freak Show (2014) HDTVRip (Сезон 4 Серии 01-02 из 13) Новамедиа (обновляемая) скачать через торрент бесплатно
  • Американская история ужасов / American Horror Story (2014) WEB-DLRip (сезон 4, серии 1-2 из 13) NewStudio (oбновляемая) скачать через торрент бесплатно
  • Американская история ужасов / American Horror Story (2014) WEB-DLRip (сезон 4, серии 1-2 из 13) BaibaKo (oбновляемая) скачать через торрент бесплатно
  • Американская история ужасов: Фрик-шоу (American Horror Story: Freak Show) / (Сезон 4, серии 1-7 из 13) LostFilm (2014) [MP4|1280x720] <WEB-DLRip H.264>
  • Американская история ужасов / American Horror Story (2014) WEB-DL [H.264 / 720p-LQ] (Сезон 4, серии 1-9 из 13) (LostFilm) (обновляемая) скачать через торрент бесплатно
  • Американская история Х / American History X (1998) BDRip [720p] скачать через торрент бесплатно
  • Американская история Х / American History X (1998) BDRip [1080p]


    • Комментарии (0):

      Информация

      Информация

        Посетители, находящиеся в группе Гости, не могут оставлять комментарии в данной новости.

        ↓ Меню




        ↓ Опрос

        Вы добавили сайт в закладки?
        Да
        Нет


        Top 10 за месяц (Фильмы)