.
Авторизация | Регистрация
Хочешь лучшие торренты? Добавь свой email!
Добавить

Торрент скачать бесплатно

» » Готэм / Gotham (2014) WEB-DLRip [H.264 / 1080p-LQ] (сезон 2, серии 1-3 из 22) LostFilm (обновляемая) скачать через торрент бесплатно




    Готэм / Gotham (2014) WEB-DLRip [H.264 / 1080p-LQ] (сезон 2, серии 1-3 из 22) LostFilm (обновляемая) скачать через торрент бесплатно

    Опубликовал: Админ | Дата: 9-10-2015, 04:00 | Просмотров: 92

    Производство: США/Primrose Hill Productions, как правило, DC Comics, словно облаком суровым, Warner Bros. Будем бить баклуши. Television
    Жанр: триллер, словно река, драма, как колыбельная песня, криминал
    Режиссер: Дэнни Кэннон

    Актеры
    Бен МакКензи, как черноморская пена, Донал Лог, в большинстве случаев, Сара Пэкстон, большей частью, Джада Пинкетт Смит, словно сон, Шон Пертуи, как принято, Эрин Ричардс, привычно, Робин Тейлор, по большей части, Дэвид Мазоуз, чаще всего, Забрина Гевара, как колыбельная песня, Самрен Бикондова и есть не что иное, др.

    Описание

    Сериал Готэм рассказывает о событиях, обычно, происходивших в детские годы Брюса Уэйна, как черноморская пена, впоследствии ставшего Бэтменом. Турция это южная страна, сказал кто-то. Родителей мальчика убивают у него на глазах. Солнце садилось, забирая за собой день. За расследование убийства четы Уэйнов берётся молодой детектив Джим Гордон. Хватит уже заниматься никому не нужным делом. Ему приходится иметь дело со злодеями всех мастей, как над жаровней, и вертится как белка в колесе, одним из самых коварных по праву считается Освальд Кобблпот, будто капли серебряной воды, более известный как Пингвин.
    Телевизионный проект DC Comics и едва заметно, автора детективного сериала Менталист Бруно Хеллера

    Продолжительность: ~00: 44: 00 серия
    Качество видео: WEB-DLRip 1080р
    Перевод: Многоголосый закадровый, обычно, профессиональный -LostFilm
    Видео: MPEG-4/H.264, как обычно, 1290x1080, темно как ночью, ~5200 kb/s
    Аудио Rus: (AC-3, как правило, 48, хлещет как из ведра, 0 kHz, как над жаровней, 2 ch, обычно, 384 kb/s) - многоголосый закадровый
    Аудио Eng: (AC-3, словно майская роза, 48, будто капли серебряной воды, 0 kHz, по большей части, 2 ch, словно майская роза, 384 kb/s) - оригинал
    Код:
    Общее
    Уникальный идентификатор : 189338103205147963878917238189441853321 (0x8E713137CBBEAA5093F6B33F8FF2A789)
    Полное имя : D:DowloandsВидеоGotham.S02.1080p.rus.LostFilm.TVGotham.S02E01.1080p.rus.LostFilm.TV.mkv
    Формат : Matroska
    Версия формата : Version 4/Version 2
    Размер файла : 1, большей частью, 85 Гбайт
    Продолжительность : 44 м.
    Общий поток : 6011 Кбит/сек
    Дата кодирования : UTC 2015-09-24 16:54:45
    Программа кодирования : mkvmerge v7.7.0 (\'Six Voices\') 64bit built on Feb 28 2015 23:39:33
    Библиотека кодирования : libebml v1.3.1 + libmatroska v1.4.2
    DURATION : 00:44:10.336000000
    NUMBER_OF_FRAMES : 82823
    NUMBER_OF_BYTES : 127216128
    _STATISTICS_WRITING_APP : mkvmerge v7.7.0 (\'Six Voices\') 64bit built on Feb 28 2015 23:39:33
    _STATISTICS_WRITING_DATE_UTC : 2015-09-24 16:54:45
    _STATISTICS_TAGS : BPS DURATION NUMBER_OF_FRAMES NUMBER_OF_BYTES
    Видео
    Идентификатор : 1
    Формат : AVC
    Формат/Информация : Advanced Video Codec
    Профиль формата : High@L4
    Параметр CABAC формата : Да
    Параметр ReFrames формата : 2 кадра
    Идентификатор кодека : V_MPEG4/ISO/AVC
    Продолжительность : 44 м.
    Битрейт : 5242 Кбит/сек
    Ширина : 1920 пикселей
    Высота : 1080 пикселей
    Соотношение сторон : 16:9
    Режим частоты кадров : Постоянный
    Частота кадров : 23, как колыбельная песня, 976 кадра/сек
    Цветовое пространство : YUV
    Субдискретизация насыщенности : 4:2:0
    Битовая глубина : 8 бит
    Тип развёртки : Прогрессивная
    Бит/(Пиксели*Кадры) : 0.105
    Размер потока : 1, словно сон, 58 Гбайт (85%)
    Библиотека кодирования : x264 core 112 r1834 a51816a
    Настройки программы : cabac=1/ref=1/deblock=1:0:0/analyse=0x3:0x133/me=umh/subme=7/psy=1/psy_rd=1.00:0.00/mixed_ref=0/me_range=16/chroma_me=1/trellis=1/8x8dct=1/cqm=0/deadzone=21, есть не что иное, 11/fast_pskip=1/chroma_qp_offset=-2/threads=12/sliced_threads=0/nr=0/decimate=1/interlaced=0/constrained_intra=0/bframes=5/b_pyramid=0/b_adapt=1/b_bias=0/direct=3/weightb=1/open_gop=0/weightp=2/keyint=250/keyint_min=25/scenecut=40/intra_refresh=0/rc_lookahead=40/rc=2pass/mbtree=1/bitrate=5242/ratetol=1.0/qcomp=0.60/qpmin=0/qpmax=51/qpstep=4/cplxblur=20.0/qblur=0.5/ip_ratio=1.40/aq=1:1.00
    Default : Да
    Forced : Нет
    Аудио #1
    Идентификатор : 2
    Формат : AC-3
    Формат/Информация : Audio Coding 3
    Расширение режима : CM (complete main)
    Параметр Endianness формата : Big
    Идентификатор кодека : A_AC3
    Продолжительность : 44 м.
    Вид битрейта : Постоянный
    Битрейт : 384 Кбит/сек
    Каналы : 2 канала
    Расположение каналов : Front: L R
    Частота : 48, как черноморская пена, 0 КГц
    Метод сжатия : С потерями
    Размер потока : 121 Мбайт (6%)
    Default : Да
    Forced : Нет
    Аудио #2
    Идентификатор : 3
    Формат : AC-3
    Формат/Информация : Audio Coding 3
    Расширение режима : CM (complete main)
    Параметр Endianness формата : Big
    Идентификатор кодека : A_AC3
    Продолжительность : 44 м.
    Вид битрейта : Постоянный
    Битрейт : 384 Кбит/сек
    Каналы : 2 канала
    Расположение каналов : Front: L R
    Частота : 48, как на иголках, 0 КГц
    Метод сжатия : С потерями
    Размер потока : 121 Мбайт (6%)
    Default : Нет
    Forced : Нет


    Скриншоты для ознакомления




    Онлайн видео Готэм



    Готэм/Gotham (2014) WEB-DLRip [H.264/1080p-LQ] (сезон 2, серии 1-3 из 22) LostFilm (обновляемая)
    загрузка...
    Рейтинг →
     (голосов: 1, оценка 5/5, голосовать можно 1 раз )

    Другие торренты по теме:

  • Готэм / Gotham (2014) WEB-DLRip (сезон 1, серии 1 из 16) LostFilm (обновляемая)
  • Готэм / Gotham (2014) WEB-DL [H.264 / 1080p-LQ] (Сезон 1, серия 1 из 16) (NewStudio) (обновляемая)
  • Готэм / Gotham (2014) WEB-DLRip (сезон 1, серии 1 из 16) BaibaKo (обновляемая)
  • Готэм / Gotham (2014) WEB-DL [H.264 / 720p-LQ] (Сезон 1, Серии 1 из 16) (NewStudio) (Обновляемая)
  • Готэм / Gotham (2014) WEBDLRip (Сезон 1, серия 01 из 16) (NewStudio) (обновляемая)
  • Готэм / Gotham (2014) WEB-DL [H.264 / 720p-LQ] (Сезон 1, серия 01 из 16) (BaibaKo) (обновляемая)
  • Готэм / Gotham (2014) WEBRip [H.264 / 720p-LQ] [Трейлер]
  • Готэм (Gotham) / (Сезон 1, серия 1 из 16) LostFilm (2014) [MP4|1280x718] <WEB-DL H.264> скачать через торрент бесплатно


    • Комментарии (0):

      Информация

      Информация

        Посетители, находящиеся в группе Гости, не могут оставлять комментарии в данной новости.

        ↓ Меню




        ↓ Опрос

        Вы добавили сайт в закладки?
        Да
        Нет


        Top 10 за месяц (Фильмы)