.
Авторизация | Регистрация
Хочешь лучшие торренты? Добавь свой email!
Добавить

Торрент скачать бесплатно

» » Хорошая жена / Правильная жена / The Good Wife (2015 WEB-DLRip (сезон 7, серии 1 из ) NewStudio (обновляемая) скачать через торрент бесплатно




    Хорошая жена / Правильная жена / The Good Wife (2015 WEB-DLRip (сезон 7, серии 1 из ) NewStudio (обновляемая) скачать через торрент бесплатно

    Опубликовал: Админ | Дата: 9-10-2015, 04:00 | Просмотров: 311

    Производство: США/Scott Free Productions, King Size Productions, Small Wishes
    Жанр: драма, криминал, детектив
    Режиссер: Мишель Кинг, Роберт Кинг

    Актеры
    Джулианна Маргулис, Крис Нот, Джош Чарльз, Кристин Барански, Мэтт Зукри, Арчи Панджаби, Макензи Вега и др.

    Описание

    Благополучное существование Алисии Флоррик, счастливой жены и матери двух детей, было разрушено, когда её муж, чикагский прокурор Питер Флоррик, оказался в центре секс-скандала. Осуждённый за коррупцию Питер отправился в тюрьму, а на плечи Алисии легла забота о семье.
    Пришлось вспомнить свои навыки адвоката. О таком странном сюжете не догадывалась даже Светлана Лобода. Старый друг взял Алисию к себе в фирму - младшим сотрудником, наравне с свежими выпускниками юридического колледжа, и теперь Алисия должна построить свою карьеру практически с нуля, не переставая заботиться о семье и продолжая испытывать негативные последствия скандала вокруг мужа.
    В сериале смешаны семейная и юридическая драмы примерно в равных пропорциях. В каждой серии рассказывается история про дело, которое ведёт фирма Стерн, Локхарт и Гарднер, куда Алисия устроилась на работу. И в каждой серии показывается жизнь её семьи, а заодно разворачивается сквозной детективный сюжет вокруг Питера - ведь его подставили под обвинение в коррупции не просто так.
    Вновь обретённая работа, любовь к детям, сложные отношения с мужем, взаимодействие с коллегами - вот из чего состоит жизнь этой женщины, на первый взгляд беззащитной и мягкой, но в реальности очень сильной и упорной.

    Продолжительность: ~00: 44: 00 серия
    Качество видео: WEB-DLRip
    Перевод: Многоголосый закадровый, профессиональный -NewStudio
    Автор перевода: Александра Цернант
    Видео: XviD, 720x400 (16: 9), ~1477 kb/s
    Аудио Rus: MPEG Layer 3, 48, 0 kHz, 2 ch, 128 kb/s — многоголосый закадровый
    Аудио Eng: MPEG Layer 3, 48, 0 kHz, 2 ch, 128 kb/s — оригинал
    Общее
    Полное имя : D: Хорошая жена (сезон любимого сериала 7) The Good Wife (2015) WEB-DLRip - NewStudioThe.Good.Wife.s07e01.WEBDLRip.NewStudio.TV.avi
    Формат : AVI
    Формат/Информация : Audio Video Interleave
    Размер файла : 550 Мбайт
    Продолжительность : 44 м.
    Общий поток : 1747 Кбит/сек
    Программа кодирования : VirtualDubMod 1.5.10.2 (build 2540/release)
    Библиотека кодирования : VirtualDubMod build 2540/release
    Видео
    Идентификатор : 0
    Формат : MPEG-4 Visual
    Профиль формата : Advanced Simple@L5
    Параметр BVOP формата : 2
    Параметр QPel формата : Нет
    Параметр GMC формата : Без точки перехода
    Параметр матрицы формата : Default (MPEG)
    Идентификатор кодека : XVID
    Идентификатор кодека/Подсказка : XviD
    Продолжительность : 44 м.
    Битрейт : 1477 Кбит/сек
    Ширина : 720 пикселей
    Высота : 400 пикселей
    Соотношение сторон : 16: 9
    Частота кадров : 23, 976 кадра/сек
    Цветовое пространство : YUV
    Субдискретизация насыщенности : 4: 2: 0
    Битовая глубина : 8 бит
    Тип развёртки : Прогрессивная
    Метод сжатия : С потерями
    Бит/(Пиксели*Кадры) : 0.214
    Размер потока : 465 Мбайт (85%)
    Библиотека кодирования : XviD 73
    Аудио #1
    Идентификатор : 1
    Формат : MPEG Audio
    Версия формата : Version 1
    Профиль формата : Layer 3
    Идентификатор кодека : 55
    Идентификатор кодека/Подсказка : MP3
    Продолжительность : 44 м.
    Вид битрейта : Постоянный
    Битрейт : 128 Кбит/сек
    Каналы : 2 канала
    Частота : 48, 0 КГц
    Метод сжатия : С потерями
    Размер потока : 40, 3 Мбайт (7%)
    Выравнивание : Соединение по промежуткам
    Продолжительность промежутка : 42 мс. (1, 00 видеокадр)
    Время предзагрузки промежутка : 504 мс.
    Аудио #2
    Идентификатор : 2
    Формат : MPEG Audio
    Версия формата : Version 1
    Профиль формата : Layer 3
    Режим : Joint stereo
    Расширение режима : MS Stereo
    Идентификатор кодека : 55
    Идентификатор кодека/Подсказка : MP3
    Продолжительность : 44 м.
    Вид битрейта : Постоянный
    Битрейт : 128 Кбит/сек
    Каналы : 2 канала
    Частота : 48, 0 КГц
    Метод сжатия : С потерями
    Размер потока : 40, 3 Мбайт (7%)
    Выравнивание : Соединение по промежуткам
    Продолжительность промежутка : 42 мс. (1, 00 видеокадр)
    Время предзагрузки промежутка : 504 мс.
    Библиотека кодирования : LAME3.99r
    Настройки программы : -m j -V 4 -q 2 -lowpass 17 -b 128


    Скриншоты для ознакомления




    Онлайн видео Хорошая жена



    Хорошая жена/Правильная жена/The Good Wife (2015 WEB-DLRip (сезон 7, серии 1 из ) NewStudio (обновляемая)
    загрузка...
    Рейтинг →
     (голосов: 1, оценка 4/5, голосовать можно 1 раз )

    Другие торренты по теме:

  • Хорошая жена / Правильная жена / The Good Wife (2014) WEB-DLRip (сезон 6, серии 1 из 22) NewStudio (обновляемая)
  • Хорошая жена / The Good Wife (2014) WEB-DL [H.264 / 720p-LQ] (Сезон 6, Серии 1 из 22) NewStudio (Обновляемая)


    • Комментарии (0):

      Информация

      Информация

        Посетители, находящиеся в группе Гости, не могут оставлять комментарии в данной новости.

        ↓ Меню




        ↓ Опрос

        Вы добавили сайт в закладки?
        Да
        Нет


        Top 10 за месяц (Фильмы)