.
Авторизация | Регистрация
Хочешь лучшие торренты? Добавь свой email!
Добавить

Торрент скачать бесплатно

» » Сверхъестественное / Supernatural (2015) HDTVRip (сезон 11, серии 1 из 10) DreamRecords (Обновляемая) скачать через торрент бесплатно




    Сверхъестественное / Supernatural (2015) HDTVRip (сезон 11, серии 1 из 10) DreamRecords (Обновляемая) скачать через торрент бесплатно

    Опубликовал: Админ | Дата: 9-10-2015, 04:00 | Просмотров: 112

    Производство: США
    Жанр: ужасы, фэнтези, триллер, драма, детектив.
    Режиссер: Роберт Сингер, Филип Сгриккиа, Ким Мэннерс.

    Актеры
    Джаред Падалеки, Дженсен Эклс, Джим Бивер, Миша Коллинз, Марк Шеппард, Марк Пеллегрино, Женевьев Падалеки, Кэти Кэссиди, Джеймс Патрик Стюарт, Саманта Феррис и др.

    Описание

    Сериал рассказывает о приключениях братьев Сэма и Дина Винчестеров, которые путешествуют по Соединённым Штатам на чёрном автомобиле Chevrolet Impala 1967 года, расследуют паранормальные явления, многие из которых основаны на американских городских легендах и фольклоре, и сражаются с порождениями зла, такими как демоны и призраки.

    Продолжительность: ~00: 42: 00 серия
    Качество видео: HDTVRip
    Перевод: многоголосый закадровый, профессиональный - DreamRecords
    Автор перевода: Константин Кривоногов
    Озвучка: Владимир Чистохин, Владислав Данилов, Анастасия Флигина, Михаил Алексеев, Светлана Чистохина
    Видео: Xvid, 720x400 (16: 9), ~1295 Kbps
    Аудио: MP3, 2 ch, 192 Kbps
    Код:

    Общее
    Полное имя : G:Supernatural.S11E01.400p.XviD-[DreamRecords].avi
    Формат : AVI
    Формат/Информация : Audio Video Interleave
    Размер файла : 456 Мбайт
    Продолжительность : 42 м.
    Общий поток : 1497 Кбит/сек
    Программа кодирования : VirtualDubModRus 1.5.10.2 (build 2542/release)
    Библиотека кодирования : VirtualDubMod build 2542/release
    Видео
    Идентификатор : 0
    Формат : MPEG-4 Visual
    Профиль формата : Advanced Simple@L5
    Параметр BVOP формата : 1
    Параметр QPel формата : Нет
    Параметр GMC формата : Без точки перехода
    Параметр матрицы формата : Default (MPEG)
    Идентификатор кодека : XVID
    Идентификатор кодека/Подсказка : XviD
    Продолжительность : 42 м.
    Битрейт : 1295 Кбит/сек
    Ширина : 720 пикселей
    Высота : 400 пикселей
    Соотношение сторон : 16:9
    Частота кадров : 23, 976 кадра/сек
    Цветовое пространство : YUV
    Субдискретизация насыщенности : 4:2:0
    Битовая глубина : 8 бит
    Тип развёртки : Прогрессивная
    Метод сжатия : С потерями
    Бит/(Пиксели*Кадры) : 0.188
    Размер потока : 395 Мбайт (87%)
    Библиотека кодирования : XviD 64
    Аудио
    Идентификатор : 1
    Формат : MPEG Audio
    Версия формата : Version 1
    Профиль формата : Layer 3
    Режим : Joint stereo
    Идентификатор кодека : 55
    Идентификатор кодека/Подсказка : MP3
    Продолжительность : 42 м.
    Вид битрейта : Постоянный
    Битрейт : 192 Кбит/сек
    Каналы : 2 канала
    Частота : 48, 0 КГц
    Метод сжатия : С потерями
    Размер потока : 58, 5 Мбайт (13%)
    Выравнивание : Соединение по промежуткам
    Продолжительность промежутка : 42 мс. (1, 00 видеокадр)
    Время предзагрузки промежутка : 504 мс.


    Скриншоты для ознакомления




    Онлайн видео Сверхъестественное



    Сверхъестественное/Supernatural (2015) HDTVRip (сезон 11, серии 1 из 10) DreamRecords (Обновляемая)
    загрузка...
    Рейтинг →
     (голосов: 1, оценка 3/5, голосовать можно 1 раз )

    Другие торренты по теме:

  • Сверхъестественное / Supernatural (2017) WEB-DL [H.264 / 720p-LQ] (сезон 13, серии 1 из 23) NewStudio & NovaFilm [AD] (обновляемая)
  • Сверхъестественное / Supernatural (2017) WEB-DLRip (сезон 13, серии 1 из 23) NewStudio & NovaFilm [AD] (обновляемая)
  • Сверхъестественное / Supernatural (2017) HDTVRip (сезон 13, серии 1 из 23) [EN / RU, EN Sub] (обновляемая)
  • Сверхъестественное / Supernatural (2017) HDTVRip [H.264 / 720p-LQ] (сезон 13, серии 1 из 23) [EN / RU, EN Sub] (обновляемая)
  • Сверхъестественное / Supernatural (2017) HDTVRip [H.264 / 1080p-LQ] (сезон 13, серии 1 из 23) [EN / RU, EN Sub] (обновляемая)
  • Сверхъестественное / Supernatural (2014) WEB-DLRip [720p] (сезон 10, серии 1 из ) LostFilm (oбновляемая)
  • Сверхъестественное / Supernatural (2014-2015) WEB-DLRip [H.264 / 1080p-LQ] (Сезон 10, серии 1 из 23) LostFilm (oбновляемая) скачать через торрент бесплатно
  • Сверхъестественное / Supernatural (2014) WEB-DLRip (сезон 10, серии 1 из ) NewStudio + NovaFiLM (oбновляемая) скачать через торрент бесплатно


    • Комментарии (0):

      Информация

      Информация

        Посетители, находящиеся в группе Гости, не могут оставлять комментарии в данной новости.

        ↓ Меню




        ↓ Опрос

        Вы добавили сайт в закладки?
        Да
        Нет


        Top 10 за месяц (Фильмы)