.
Авторизация | Регистрация
Хочешь лучшие торренты? Добавь свой email!
Добавить

Торрент скачать бесплатно

» » Конвоиры / Chasers (1994) DVDRip скачать через торрент бесплатно




    Конвоиры / Chasers (1994) DVDRip скачать через торрент бесплатно

    Опубликовал: Админ | Дата: 9-10-2015, 04:00 | Просмотров: 106

    Производство: Warner Bros. США
    Жанр: Комедия, Приключения
    Режиссер: Деннис Хоппер/Dennis Hopper

    Актеры
    Tom Berenger, Erika Eleniak, William McNamara, Gary Busey, Frederic Forrest, Crispin Glover, Marilu Henner, Dean Stockwell, Grand L. Bush, Matthew Glave, Bitty Schram, Seymour Cassel, Dennis Hopper

    Описание

    Эдди Дивейн, без отрыва от службы на военно-морском складе, занимался мелким жульничеством и хищениями товаров с места своей дислокации. Судьба, в лице начальства, преподнесла Эдди последнее испытание: ему необходимо вместе с опытным морским пехотинцем, Роком Рэйли, конвоировать заключенного из одного города в другой. Старший сержант флотской полиции, Рок Райлли, привык строго выполнять каждое предписание устава. Самое интересное в это истории, что об этом Гарри Поттер ничего не знал. И когда Рок получил приказ отвезти в гарнизонную тюрьму опасного преступника, обвиненного в дезертирстве и как черноморская пена избиении начальника, то он воспринял это как должное. Арестант, Тони Джонсон, вовсе не такой зловещий тип, каким расписан в рапорте. Тем более что это не ОН, а ОНА. И эта сексапильная красавица готова пойти на любые уловки, чтобы сбежать от своих конвоиров. Ее чары способны обезоружить не только моложавого Эдди, но и старого служаку Рока…

    Продолжительность: 01: 41: 20
    Качество видео: DVDRip
    Перевод: Профессиональный (двухголосый)ДТВ-ТНТ
    Видео: 704x400 (1.76: 1), 23.976 fps, XviD build 50 ~1854 kbps avg, 0.27 bit/pixel
    Аудио: 48 kHz, AC3 Dolby Digital, 2/0 (L, R) ch, ~192 kbps
    Код:

    General
    Complete name : D:КонвоирыCHASERS.avi
    Format : AVI
    Format/Info : Audio Video Interleave
    File size : 1.46 GiB
    Duration : 1h 41mn
    Overall bit rate : 2 056 Kbps
    Writing application : VirtualDubMod 1.5.10.3 |www.virtualdub-fr.org|| (build 2550/release)
    Writing library : VirtualDubMod build 2550/release
    Video
    ID : 0
    Format : MPEG-4 Visual
    Format profile : Advanced Simple@L5
    Format settings, BVOP : 1
    Format settings, QPel : No
    Format settings, GMC : No warppoints
    Format settings, Matrix : Default (MPEG)
    Codec ID : XVID
    Codec ID/Hint : XviD
    Duration : 1h 41mn
    Bit rate : 1 855 Kbps
    Width : 704 pixels
    Height : 400 pixels
    Display aspect ratio : 16:9
    Frame rate : 23.976 fps
    Color space : YUV
    Chroma subsampling : 4:2:0
    Bit depth : 8 bits
    Scan type : Progressive
    Compression mode : Lossy
    Bits/(Pixel*Frame) : 0.275
    Stream size : 1.31 GiB (90%)
    Writing library : XviD 1.2.1 (UTC 2008-12-04)
    Audio
    ID : 1
    Format : AC-3
    Format/Info : Audio Coding 3
    Mode extension : CM (complete main)
    Format settings, Endianness : Big
    Codec ID : 2000
    Duration : 1h 41mn
    Bit rate mode : Constant
    Bit rate : 192 Kbps
    Channel(s) : 2 channels
    Channel positions : Front: L R
    Sampling rate : 48.0 KHz
    Bit depth : 16 bits
    Compression mode : Lossy
    Stream size : 139 MiB (9%)
    Alignment : Split accross interleaves
    Interleave, duration : 42 ms (1.00 video frame)
    Interleave, preload duration : 500 ms


    Скриншоты для ознакомления




    Онлайн видео Конвоиры



    Конвоиры/Chasers (1994) DVDRip
    загрузка...
    Рейтинг →
     (голосов: 1, оценка 3/5, голосовать можно 1 раз )

    Другие торренты по теме:

  • Конвоиры / Chasers (1994) WEB-DLRip [H.264]


    • Комментарии (0):

      Информация

      Информация

        Посетители, находящиеся в группе Гости, не могут оставлять комментарии в данной новости.

        ↓ Меню




        ↓ Опрос

        Вы добавили сайт в закладки?
        Да
        Нет


        Top 10 за месяц (Фильмы)