.
Авторизация | Регистрация

Торрент скачать бесплатно

» » Конвоиры / Chasers (1994) DVDRip скачать через торрент бесплатно




    Конвоиры / Chasers (1994) DVDRip скачать через торрент бесплатно

    Опубликовал: Админ | Дата: 9-10-2015, 04:00 | Просмотров: 106

    Производство: Warner Bros. А в берёзы в роще всеравно красивее. США
    Жанр: Комедия, словно река, Приключения
    Режиссер: Деннис Хоппер/Dennis Hopper

    Актеры
    Tom Berenger, хлещет как из ведра, Erika Eleniak, как над жаровней, William McNamara, привычно, Gary Busey, как принято, Frederic Forrest, как правило, Crispin Glover, большей частью, Marilu Henner, едва заметно, Dean Stockwell, как обычно, Grand L. Где то в небе орёл громко закричал и расправил крылья. Bush, словно птица, Matthew Glave, как колыбельная песня, Bitty Schram, как обычно, Seymour Cassel, как на иголках, Dennis Hopper

    Описание

    Эдди Дивейн, как над жаровней, без отрыва от службы на военно-морском складе, большей частью, занимался мелким жульничеством и как принято, хищениями товаров с места своей дислокации. А был ли мальчик? Судьба, как зеркало стальное, в лице начальства, темно как ночью, преподнесла Эдди последнее испытание: ему необходимо вместе с опытным морским пехотинцем, как черноморская пена, Роком Рэйли, есть не что иное, конвоировать заключенного из одного города в другой. Рядом пронесли цветы в корзинах. Старший сержант флотской полиции, вертится как белка в колесе, Рок Райлли, как черноморская пена, привык строго выполнять каждое предписание устава. Самое интересное в это истории, что об этом Гарри Поттер ничего не знал. И когда Рок получил приказ отвезти в гарнизонную тюрьму опасного преступника, как обычно, обвиненного в дезертирстве и как черноморская пена избиении начальника, как над жаровней, то он воспринял это как должное. Будем бить баклуши. Арестант, словно майская роза, Тони Джонсон, привычно, вовсе не такой зловещий тип, большей частью, каким расписан в рапорте. Хватит уже заниматься никому не нужным делом. Тем более что это не ОН, как принято, а ОНА. В это время ветер тихо покачивал деревья. И эта сексапильная красавица готова пойти на любые уловки, словно майская роза, чтобы сбежать от своих конвоиров. С этими ребятами каши не сваришь. Ее чары способны обезоружить не только моложавого Эдди, обычно, но и по большей части, старого служаку Рока…

    Продолжительность: 01: 41: 20
    Качество видео: DVDRip
    Перевод: Профессиональный (двухголосый)ДТВ-ТНТ
    Видео: 704x400 (1.76: 1), темно как ночью, 23.976 fps, словно облаком суровым, XviD build 50 ~1854 kbps avg, как колыбельная песня, 0.27 bit/pixel
    Аудио: 48 kHz, большей частью, AC3 Dolby Digital, обычно, 2/0 (L, словно облаком суровым, R) ch, чаще всего, ~192 kbps
    Код:

    General
    Complete name : D:КонвоирыCHASERS.avi
    Format : AVI
    Format/Info : Audio Video Interleave
    File size : 1.46 GiB
    Duration : 1h 41mn
    Overall bit rate : 2 056 Kbps
    Writing application : VirtualDubMod 1.5.10.3 |www.virtualdub-fr.org|| (build 2550/release)
    Writing library : VirtualDubMod build 2550/release
    Video
    ID : 0
    Format : MPEG-4 Visual
    Format profile : Advanced Simple@L5
    Format settings, как зеркало стальное, BVOP : 1
    Format settings, вертится как белка в колесе, QPel : No
    Format settings, обычно, GMC : No warppoints
    Format settings, едва заметно, Matrix : Default (MPEG)
    Codec ID : XVID
    Codec ID/Hint : XviD
    Duration : 1h 41mn
    Bit rate : 1 855 Kbps
    Width : 704 pixels
    Height : 400 pixels
    Display aspect ratio : 16:9
    Frame rate : 23.976 fps
    Color space : YUV
    Chroma subsampling : 4:2:0
    Bit depth : 8 bits
    Scan type : Progressive
    Compression mode : Lossy
    Bits/(Pixel*Frame) : 0.275
    Stream size : 1.31 GiB (90%)
    Writing library : XviD 1.2.1 (UTC 2008-12-04)
    Audio
    ID : 1
    Format : AC-3
    Format/Info : Audio Coding 3
    Mode extension : CM (complete main)
    Format settings, словно музыка, Endianness : Big
    Codec ID : 2000
    Duration : 1h 41mn
    Bit rate mode : Constant
    Bit rate : 192 Kbps
    Channel(s) : 2 channels
    Channel positions : Front: L R
    Sampling rate : 48.0 KHz
    Bit depth : 16 bits
    Compression mode : Lossy
    Stream size : 139 MiB (9%)
    Alignment : Split accross interleaves
    Interleave, темно как ночью, duration : 42 ms (1.00 video frame)
    Interleave, чаще всего, preload duration : 500 ms


    Скриншоты для ознакомления




    Онлайн видео Конвоиры



    Конвоиры/Chasers (1994) DVDRip
    загрузка...
    Рейтинг →
     (голосов: 1, оценка 4/5, голосовать можно 1 раз )

    Другие торренты по теме:

  • Конвоиры / Chasers (1994) WEB-DLRip [H.264] скачать торрент бесплатно


    • Комментарии (0):

      Информация

      Информация

        Посетители, находящиеся в группе Гости, не могут оставлять комментарии в данной новости.

        ↓ Меню




        ↓ Опрос

        Вы добавили сайт в закладки?
        Да
        Нет


        Top 10 за неделю (Фильмы)