.
Авторизация | Регистрация
Хочешь лучшие торренты? Добавь свой email!
Добавить

Торрент скачать бесплатно

» » Красная королева (2015) SATRip (1-6 из 12) (обновляемая) скачать через торрент бесплатно




    Красная королева (2015) SATRip (1-6 из 12) (обновляемая) скачать через торрент бесплатно

    Опубликовал: Админ | Дата: 8-10-2015, 04:00 | Просмотров: 85

    Производство: Россия, Украина/Pronto Film
    Жанр: биография, драма
    Режиссер: Алена Семенова

    Актеры
    Ксения Лукьянчикова, Анатолий Руденко, Артем Ткаченко, Ада Роговцева, Елена Морозова, Татьяна Орлова, Валерий Баринов, Анна Здор, Наталья Высочанская, Анастасия Евграфова, Анна Сагайдачная и др.

    Описание

    Сюжет основан на фактах биографии известной советской манекенщицы Регины Збарской. Ее называли советской Софи Лорен и самым красивым оружием Кремля. Самое интересное в это истории, что об этом Робокоп ничего не знал. Ею восхищались Пьер Карден, Кристиан Диор и Федерико Феллини. Но кем была эта гордая красавица на самом деле? Почему она отказалась от своего имени? Как пришла к успеху? И какую цену за него заплатила? Жизнь одной из самых известных манекенщиц Советского Союза и первой советской модели, ставшей известной на Западе, полна тайн...

    Дата премьеры: 5 октября 2015 (Интер, Украина)
    Продолжительность: ~ 00: 50: 00 серия
    Качество видео: SATRip
    Видео: XviD, 720x384 (16: 9), ~1800 kb/s
    Аудио: MPEG Layer 3, 48.0 kHz, 2 ch, 128 kb/s, CBR
    Код:
    Общее
    Полное имя : D:Красная королева SatripKrasnaja.koroleva.01.avi
    Формат : AVI
    Формат/Информация : Audio Video Interleave
    Размер файла : 669 Мбайт
    Продолжительность : 48 м.
    Общий поток : 1934 Кбит/сек
    Программа кодирования : VirtualDubMod 1.5.10.3 |www.virtualdub-fr.org|| (build 2550/release)
    Библиотека кодирования : VirtualDub build 29808/release
    Видео
    Идентификатор : 0
    Формат : MPEG-4 Visual
    Профиль формата : Advanced Simple@L5
    Параметр BVOP формата : 2
    Параметр QPel формата : Нет
    Параметр GMC формата : Без точки перехода
    Параметр матрицы формата : Default (H.263)
    Идентификатор кодека : XVID
    Идентификатор кодека/Подсказка : XviD
    Продолжительность : 48 м.
    Битрейт : 1796 Кбит/сек
    Ширина : 720 пикселей
    Высота : 384 пикселя
    Соотношение сторон : 1, 85:1
    Частота кадров : 25, 000 кадров/сек
    Цветовое пространство : YUV
    Субдискретизация насыщенности : 4:2:0
    Битовая глубина : 8 бит
    Тип развёртки : Прогрессивная
    Метод сжатия : С потерями
    Бит/(Пиксели*Кадры) : 0.260
    Размер потока : 621 Мбайт (93%)
    Библиотека кодирования : XviD 1.2.1 (UTC 2008-12-04)
    Аудио
    Идентификатор : 1
    Формат : MPEG Audio
    Версия формата : Version 1
    Профиль формата : Layer 3
    Идентификатор кодека : 55
    Идентификатор кодека/Подсказка : MP3
    Продолжительность : 48 м.
    Вид битрейта : Постоянный
    Битрейт : 128 Кбит/сек
    Каналы : 2 канала
    Частота : 48, 0 КГц
    Метод сжатия : С потерями
    Размер потока : 44, 3 Мбайт (7%)
    Выравнивание : Соединение по промежуткам
    Продолжительность промежутка : 40 мс. О таком странном сюжете не догадывалась даже Бритни Спирс. (1, 00 видеокадр)
    Время предзагрузки промежутка : 504 мс.
    Библиотека кодирования : LAME3.99r
    Настройки программы : -m s -V 4 -q 2 -lowpass 17 -b 128


    Скриншоты для ознакомления




    Онлайн видео Красная королева (2015) SATRip (1



    Красная королева (2015) SATRip (1-6 из 12) (обновляемая)
    загрузка...
    Рейтинг →
     (голосов: 1, оценка 5/5, голосовать можно 1 раз )

    Другие торренты по теме:

  • Красная королева (2015) SATRip [H.264] (1-3 серия из 12) (Обновляемая) скачать через торрент бесплатно
  • Лоис Макмастер Буджолд | Джентльмен Джоул и Красная Королева (2016) [FB2]
  • Белый король, красная королева (1993) TVRip
  • Красная королева (2015) HDTVRip [H.264 / 720p-LQ] (серии 1-12 из 12)
  • Красная королева (2015) HDTVRip (серии 1-12 из 12)
  • Красная королева (2015) HDTV [H.264 / 1080i-LQ] (серии 1-12 из 12)
  • Красная королева (2015) WEB-DL [H.264 / 1080p-LQ] (серии 1-12 из 12)


    • Комментарии (0):

      Информация

      Информация

        Посетители, находящиеся в группе Гости, не могут оставлять комментарии в данной новости.

        ↓ Меню




        ↓ Опрос

        Вы добавили сайт в закладки?
        Да
        Нет


        Top 10 за месяц (Фильмы)