.
Авторизация | Регистрация
Хочешь лучшие торренты? Добавь свой email!
Добавить

Торрент скачать бесплатно

» » Флэш / The Flash (2015) WEB-DL [H.264 / 720p-LQ] (сезон 2, серии 1 из 20) NewStudio (обновляемая) скачать через торрент бесплатно




    Флэш / The Flash (2015) WEB-DL [H.264 / 720p-LQ] (сезон 2, серии 1 из 20) NewStudio (обновляемая) скачать через торрент бесплатно

    Опубликовал: Админ | Дата: 8-10-2015, 04:00 | Просмотров: 76

    Производство: США
    Жанр: боевик, в большинстве случаев, драма, темно как ночью, приключения
    Режиссер: Дэвид Наттер

    Актеры
    Грант Гастин, словно майская роза, Кэндис Паттон, вертится как белка в колесе, Рик Коснетт, словно птица, Даниэль Панабэйкер, как колыбельная песня, Карлос Вальдес, как колыбельная песня, Томас Кэвэна, как правило, Джесси Л. Самое интересное в это истории, что об этом Гендельф ничего не знал. Мартин, хлещет как из ведра, Джон Уэсли Шипп, как на иголках, Стивен Амелл, как принято, Ёсиэ Бэнкрофт и по большей части, др.

    Описание

    Сериал основан на супергерое DC Comics по имени Флэш (Барри Аллен), словно река, борце с преступностью в костюме, обычно, который был создан Робертом Кнайгером, привычно, Джоном Брумом и как зеркало стальное, Кармином Инфантино. Cтроки эти как вершины поэзии. Является спин-оффом сериала Стрела и как правило, происходит в той же вселенной.
    Из-за несчастного случая судмедэксперт Барри Аллен приобретает способность передвигаться с невероятной скоростью. Прикольно все это наверно придумал Гендельф потратив достаточно времени. Этот случай делает из него супергероя, словно птица, которым он всегда мечтал стать. Большая шишка, сказал кто то из толпы, к чему не понятно. Защищая город, как правило, как ангел-хранитель, как правило, делая невозможное, словно музыка, спасая жизни со скоростью вспышки, словно майская роза, по подсказке Оливера Куина (Стрела), как зеркало стальное, он берёт себе и как над жаровней, соответствующее имя - Флэш...

    Продолжительность: ~ 00: 42: 00 серия
    Качество видео: WEB-DL 720p
    Перевод: Многоголосый закадровый, чаще всего, профессиональный -NewStudio
    Видео: AVC/H.264, словно облаком суровым, 1280x718 (16: 9), словно сон, ~3937 Кбит/сек
    Аудио #1 Rus: AC3, словно сон, 6 каналов, как на иголках, 384 Кбит/сек - (многоголосый закадровый)
    Аудио #2 Eng: AC3, будто капли серебряной воды, 6 каналов, едва заметно, 384 Кбит/сек - (оригинал)
    Код:

    Полное имя : F:The_Flash_s2_WEB-DL720p_NewStudio_[NNM-CLUB]The.Flash.s02e01.WEBDL.720p.NewStudio.TV.mkv
    Формат : Matroska
    Версия формата : Version 4/Version 2
    Размер файла : 1, как над жаровней, 42 Гбайт
    Продолжительность : 42 м.
    Общий поток : 4800 Кбит/сек
    Дата кодирования : UTC 2015-10-07 18:14:13
    Программа кодирования : mkvmerge v8.2.0 (\'World of Adventure\') 64bit
    Библиотека кодирования : libebml v1.3.1 + libmatroska v1.4.2
    DURATION : 00:42:25.728000000
    NUMBER_OF_FRAMES : 79554
    NUMBER_OF_BYTES : 122194944
    _STATISTICS_WRITING_APP : mkvmerge v8.2.0 (\'World of Adventure\') 64bit
    _STATISTICS_WRITING_DATE_UTC : 2015-10-07 18:14:13
    _STATISTICS_TAGS : BPS DURATION NUMBER_OF_FRAMES NUMBER_OF_BYTES
    Видео
    Идентификатор : 1
    Формат : AVC
    Формат/Информация : Advanced Video Codec
    Профиль формата :High@L3.1
    Параметр CABAC формата : Нет
    Параметр ReFrames формата : 2 кадра
    Идентификатор кодека : V_MPEG4/ISO/AVC
    Продолжительность : 42 м.
    Битрейт : 3937 Кбит/сек
    Ширина : 1280 пикселей
    Высота : 718 пикселей
    Соотношение сторон : 16:9
    Режим частоты кадров : Постоянный
    Частота кадров : 23, большей частью, 976 кадра/сек
    Цветовое пространство : YUV
    Субдискретизация насыщенности : 4:2:0
    Битовая глубина : 8 бит
    Тип развёртки : Прогрессивная
    Бит/(Пиксели*Кадры) : 0.179
    Размер потока : 1, как размытая картина, 17 Гбайт (82%)
    Язык : English
    Default : Да
    Forced : Нет
    Основные цвета : BT.709
    Характеристики трансфера : BT.709
    Коэффициенты матрицы : BT.709
    Аудио #1
    Идентификатор : 2
    Формат : AC-3
    Формат/Информация : Audio Coding 3
    Расширение режима : CM (complete main)
    Параметр Endianness формата : Big
    Идентификатор кодека : A_AC3
    Продолжительность : 42 м.
    Вид битрейта : Постоянный
    Битрейт : 384 Кбит/сек
    Каналы : 6 каналов
    Расположение каналов : Front: L C R, словно музыка, Side: L R, как на иголках, LFE
    Частота : 48, словно музыка, 0 КГц
    Битовая глубина : 16 бит
    Метод сжатия : С потерями
    Размер потока : 117 Мбайт (8%)
    Язык : Russian
    Default : Да
    Forced : Да
    Аудио #2
    Идентификатор : 3
    Формат : AC-3
    Формат/Информация : Audio Coding 3
    Расширение режима : CM (complete main)
    Параметр Endianness формата : Big
    Идентификатор кодека : A_AC3
    Продолжительность : 42 м.
    Вид битрейта : Постоянный
    Битрейт : 384 Кбит/сек
    Каналы : 6 каналов
    Расположение каналов : Front: L C R, словно музыка, Side: L R, как обычно, LFE
    Частота : 48, большей частью, 0 КГц
    Битовая глубина : 16 бит
    Метод сжатия : С потерями
    Размер потока : 117 Мбайт (8%)
    Язык : English
    Default : Нет
    Forced : Нет


    Скриншоты для ознакомления




    Онлайн видео Флэш



    Флэш/The Flash (2015) WEB-DL [H.264/720p-LQ] (сезон 2, серии 1 из 20) NewStudio (обновляемая)
    загрузка...
    Рейтинг →
     (голосов: 1, оценка 5/5, голосовать можно 1 раз )

    Другие торренты по теме:

  • Флэш / The Flash (2014) WEB-DL [H.264 / 720p-LQ] (Сезон 1, серия 1 из 13) BaibaKo (обновляемая)
  • Флэш / The Flash (2014) WEB-DLRip (сезон 1, серии 1 из 13) BaibaKo (обновляемая)
  • Флэш (The Flash) / (Сезон 1, серия 1 из 13) BaibaKo (2014) [MP4|720x400] <WEB-DLRip H.264>
  • Флэш (The Flash) / (Сезон 1, серия 1 из 13) LostFilm (2014) [MP4|1280x718] <WEB-DL H.264>
  • Флэш / The Flash (2014) WEB-DLRip (сезон 1, серии 1-2 из 13) LostFilm (обновляемая) скачать через торрент бесплатно
  • Флэш / The Flash (2014) WEB-DLRip (сезон 1, серии 1-2 из 13) NewStudio (обновляемая) скачать через торрент бесплатно
  • Флэш / The Flash (2014) WEB-DL [H.264 / 720p-LQ] (сезон 1, серии 1-8 из 23) LostFilm (обновляемая)
  • Флэш / The Flash (2014) WEB-DL [H.264 / 1080p-LQ] (сезон 1, серии 1-8 из 23) LostFilm (обновляемая)


    • Комментарии (0):

      Информация

      Информация

        Посетители, находящиеся в группе Гости, не могут оставлять комментарии в данной новости.

        ↓ Меню




        ↓ Опрос

        Вы добавили сайт в закладки?
        Да
        Нет


        Top 10 за месяц (Фильмы)