.
Авторизация | Регистрация
Хочешь лучшие торренты? Добавь свой email!
Добавить

Торрент скачать бесплатно

» » Области тьмы / Limitless (2015) WEB-DLRip (сезон 1, серии 1-2 из 7) LostFilm (обновляемая) скачать через торрент бесплатно




    Области тьмы / Limitless (2015) WEB-DLRip (сезон 1, серии 1-2 из 7) LostFilm (обновляемая) скачать через торрент бесплатно

    Опубликовал: Админ | Дата: 7-10-2015, 04:00 | Просмотров: 1218

    Производство: США
    Жанр: фантастика, триллер, драма
    Режиссер: Марк Уэбб, Дуглас Арниокоски, Гильермо Наварро

    Актеры
    Джейк Макдорман, Дженнифер Карпентер, Хилл Харпер, Мэри Элизабет Мастрантонио, Брэдли Купер, Генри Джальярди, Рон Рифкин, Дэниэл Эрик Голд, Майкл Джеймс Шоу, Арджун Гупта и др.

    Описание

    История о человеке, которому удаётся максимально раскрыть возможности своего мозга. Главный герой Брайан Синклер открывает для себя фантастическую силу препарата NZT и пытается использовать её для раскрытия запутанных дел на службе в ФБР. Дженнифер Карпентер сыграет Ребекку — агента ФБР, которая стремительно поднимается по карьерной лестнице, но всё ещё не смирилась с причинами, толкнувшими её поступить на службу. В сериальной версии Брэдли Купер выступит уже в роли сенатора Эдварда Морра, у которого есть свои далеко идущие планы на счёт его протеже — Брайана Финча, который работает на сенатора без ведома ФБР.

    Дата мировой премьеры: 22 сентября 2015
    Продолжительность: ~00: 44: 00 серия
    Качество видео: WEB-DLRip
    Перевод: Многоголосый закадровый, профессиональный -LostFilm
    Видео: Xvid, 720x400 (16: 9), ~1779kbps
    Аудио Rus: MP3, 48kHz, 2ch, 192kbps, VBR - многоголосый закадровый
    Код:

    General
    Complete name : D:Limitless.S01.rus.LostFilm.TVLimitless.S01E01.rus.LostFilm.TV.avi
    Format : AVI
    Format/Info : Audio Video Interleave
    File size : 622 MiB
    Duration : 43mn 55s
    Overall bit rate mode : Variable
    Overall bit rate : 1 981 Kbps
    Writing application : Nandub v1.0rc2
    Writing library : VirtualDub build 35491/release
    Video
    ID : 0
    Format : MPEG-4 Visual
    Format profile : Advanced Simple@L5
    Format settings, BVOP : No
    Format settings, QPel : No
    Format settings, GMC : No warppoints
    Format settings, Matrix : Default (H.263)
    Codec ID : XVID
    Codec ID/Hint : XviD
    Duration : 43mn 55s
    Bit rate : 1 779 Kbps
    Width : 720 pixels
    Height : 400 pixels
    Display aspect ratio : 16:9
    Frame rate : 23.976 fps
    Color space : YUV
    Chroma subsampling : 4:2:0
    Bit depth : 8 bits
    Scan type : Progressive
    Compression mode : Lossy
    Bits/(Pixel*Frame) : 0.258
    Stream size : 559 MiB (90%)
    Writing library : XviD 1.2.1 (UTC 2008-12-04)
    Audio
    ID : 1
    Format : MPEG Audio
    Format version : Version 1
    Format profile : Layer 3
    Mode : Joint stereo
    Codec ID : 55
    Codec ID/Hint : MP3
    Duration : 43mn 55s
    Bit rate mode : Variable
    Bit rate : 192 Kbps
    Channel(s) : 2 channels
    Sampling rate : 48.0 KHz
    Compression mode : Lossy
    Stream size : 59.4 MiB (10%)
    Alignment : Aligned on interleaves
    Interleave, duration : 24 ms (0.58 video frame)
    Interleave, preload duration : 481 ms


    Скриншоты для ознакомления




    Онлайн видео Области тьмы



    Области тьмы/Limitless (2015) WEB-DLRip (сезон 1, серии 1-2 из 7) LostFilm (обновляемая)
    загрузка...
    Рейтинг →
     (голосов: 1, оценка 4/5, голосовать можно 1 раз )

    Другие торренты по теме:

  • Области тьмы / Limitless (2011) BDRip [H.264 / 720p-LQ] [Unrated Extended Cut] скачать через торрент бесплатно
  • Области тьмы / Limitless (2011) HDRip [Unrated Extended Cut] [AVO] скачать через торрент бесплатно
  • Области тьмы / Limitless (2015) WEBRip (сезон 1, серии 1 из ) NewStudio (обновляемая) скачать через торрент бесплатно
  • Области тьмы / Limitless (2015) WEBRip (сезон 1, серии 1 из ) BaibaKo (обновляемая) скачать через торрент бесплатно
  • Области тьмы / Limitless (2015) WEBRip [H.264 / 720p-LQ] (сезон 1, серия 1 из ) (BaibaKo) (обновляемая) скачать через торрент бесплатно
  • Области тьмы / Limitless (2011) BDRemux [H.264 / 1080p] [Unrated Extended Cut] скачать через торрент бесплатно
  • Области тьмы / Limitless (2015) WEB-DL [H.264 / 720p-LQ] (сезон 1, серия 1 из 10) (NewStudio) (обновляемая) скачать через торрент бесплатно
  • Области тьмы / Limitless (2015) WEB-DL [H.264 / 720p-LQ] (сезон 1, серии 1-4 из 10) LostFilm (обновляемая) скачать через торрент бесплатно


    • Комментарии (0):

      Информация

      Информация

        Посетители, находящиеся в группе Гости, не могут оставлять комментарии в данной новости.

        ↓ Меню




        ↓ Опрос

        Вы добавили сайт в закладки?
        Да
        Нет


        Top 10 за месяц (Фильмы)