.
Авторизация | Регистрация
Хочешь лучшие торренты? Добавь свой email!
Добавить

Торрент скачать бесплатно

» » Нация Z / Z Nation (2014) WEB-DLRip [H.264 / 1080p-LQ] (сезон 1, серии 1-13 из 13) LostFilm скачать через торрент бесплатно




    Нация Z / Z Nation (2014) WEB-DLRip [H.264 / 1080p-LQ] (сезон 1, серии 1-13 из 13) LostFilm скачать через торрент бесплатно

    Опубликовал: Админ | Дата: 7-10-2015, 04:00 | Просмотров: 89

    Производство: США
    Жанр: ужасы, как на иголках, фантастика, как колыбельная песня, боевик, как правило, драма
    Режиссер: Джон Хайамс, хлещет как из ведра, Абрам Кокс, темно как ночью, Рэйчел Голденберг

    Актеры
    Гарольд Перрино, как принято, Том Эверетт Скотт, как над жаровней, Ди Джей Куаллс, как обычно, Майкл Уэлш, словно птица, Келлита Смит, темно как ночью, Анастасия Баранова, словно облаком суровым, Расселл Ходжкинсон, чаще всего, Кит Аллан и темно как ночью, др.

    Описание

    Через три года после того, словно река, как стремительный зомби-вирус поразил большую часть населения США, хлещет как из ведра, а правительство страны было свергнуто, как зеркало стальное, группа выживших взялась за выполнение смертельно опасной миссии. Боже как давно это было. Чтобы спасти тех, чаще всего, кто еще не заразился, словно музыка, им необходимо доставить одного уникального гражданина из Нью-Йорка в Калифорнию. Будем бить баклуши. Там, словно облаком суровым, на другом конце страны, едва заметно, предположительно находится функционирующая лаборатория с учеными, по большей части, способными использовать антитела этого уникума для создания вакцины, словно майская роза, которая поможет остановить эпидемию. Как для меня не ожиданный поворот событий. Однако путешественники не подозревают, как размытая картина, что их бесценный груз хранит страшную тайну. Помоему это бабушкины сказки. Его секрет может поставить под угрозу как саму миссию, темно как ночью, так и большей частью, спасение всего человечества…

    Продолжительность: ~ 00: 43: 00 серия
    Качество видео: WEB-DLRip 1080p
    Перевод: Многоголосый закадровый, словно музыка, профессиональный -LostFilm
    Видео: AVC/H.264, словно музыка, 1920x1080 (16: 9), вертится как белка в колесе, ~5242 Кбит/сек
    Аудио #1 Rus: AC3, как на иголках, 2 канала, словно птица, 384 Кбит/сек - (многоголосый закадровый)
    Аудио #2 Eng: AC3, как зеркало стальное, 2 канала, темно как ночью, 384 Кбит/сек - (оригинал)
    Код:

    Полное имя : D:Z_Nation_s1_WEB-DL1080p_LostFilm_[NNM-CLUB]Z.Nation.S01E01.1080p.rus.LostFilm.TV.mkv
    Формат : Matroska
    Версия формата : Version 2
    Размер файла : 1, в большинстве случаев, 81 Гбайт
    Продолжительность : 43 м.
    Общий поток : 6011 Кбит/сек
    Дата кодирования : UTC 2014-09-15 21:11:15
    Программа кодирования : mkvmerge v4.2.0 (\'No Talking\') сборка от Jul 28 2010 18:38:23
    Библиотека кодирования : libebml v1.0.0 + libmatroska v1.0.0
    Видео
    Идентификатор : 1
    Формат : AVC
    Формат/Информация : Advanced Video Codec
    Профиль формата :High@L4.0
    Параметр CABAC формата : Да
    Параметр ReFrames формата : 2 кадра
    Идентификатор кодека : V_MPEG4/ISO/AVC
    Продолжительность : 43 м.
    Битрейт : 5242 Кбит/сек
    Ширина : 1920 пикселей
    Высота : 1080 пикселей
    Соотношение сторон : 16:9
    Режим частоты кадров : Постоянный
    Частота кадров : 23, по большей части, 976 кадра/сек
    Цветовое пространство : YUV
    Субдискретизация насыщенности : 4:2:0
    Битовая глубина : 8 бит
    Тип развёртки : Прогрессивная
    Бит/(Пиксели*Кадры) : 0.105
    Размер потока : 1, хлещет как из ведра, 54 Гбайт (85%)
    Библиотека кодирования : x264 core 112 r1834 a51816a
    Настройки программы : cabac=1/ref=1/deblock=1:0:0/analyse=0x3:0x133/me=umh/subme=7/psy=1/psy_rd=1.00:0.00/mixed_ref=0/me_range=16/chroma_me=1/trellis=1/8x8dct=1/cqm=0/deadzone=21, как принято, 11/fast_pskip=1/chroma_qp_offset=-2/threads=6/sliced_threads=0/nr=0/decimate=1/interlaced=0/constrained_intra=0/bframes=5/b_pyramid=0/b_adapt=1/b_bias=0/direct=3/weightb=1/open_gop=0/weightp=2/keyint=250/keyint_min=25/scenecut=40/intra_refresh=0/rc_lookahead=40/rc=2pass/mbtree=1/bitrate=5242/ratetol=1.0/qcomp=0.60/qpmin=0/qpmax=51/qpstep=4/cplxblur=20.0/qblur=0.5/ip_ratio=1.40/aq=1:1.00
    Default : Да
    Forced : Нет
    Аудио #1
    Идентификатор : 2
    Формат : AC-3
    Формат/Информация : Audio Coding 3
    Расширение режима : CM (complete main)
    Параметр Endianness формата : Big
    Идентификатор кодека : A_AC3
    Продолжительность : 43 м.
    Вид битрейта : Постоянный
    Битрейт : 384 Кбит/сек
    Каналы : 2 канала
    Расположение каналов : Front: L R
    Частота : 48, как размытая картина, 0 КГц
    Битовая глубина : 16 бит
    Метод сжатия : С потерями
    Размер потока : 119 Мбайт (6%)
    Default : Да
    Forced : Нет
    Аудио #2
    Идентификатор : 3
    Формат : AC-3
    Формат/Информация : Audio Coding 3
    Расширение режима : CM (complete main)
    Параметр Endianness формата : Big
    Идентификатор кодека : A_AC3
    Продолжительность : 43 м.
    Вид битрейта : Постоянный
    Битрейт : 384 Кбит/сек
    Каналы : 2 канала
    Расположение каналов : Front: L R
    Частота : 48, в большинстве случаев, 0 КГц
    Битовая глубина : 16 бит
    Метод сжатия : С потерями
    Размер потока : 119 Мбайт (6%)
    Default : Нет
    Forced : Нет


    Скриншоты для ознакомления




    Онлайн видео Нация Z



    Нация Z/Z Nation (2014) WEB-DLRip [H.264/1080p-LQ] (сезон 1, серии 1-13 из 13) LostFilm
    загрузка...
    Рейтинг →
     (голосов: 1, оценка 4/5, голосовать можно 1 раз )

    Другие торренты по теме:

  • Нация Z / Z Nation (2014) WEB-DLRip (Сезон 1, серии 01-02 из 13) LostFilm (обновляемая)
  • Нация Z / Z Nation (2014) WEB-DLRip (Сезон 1, серии 1-2 из 13) BaibaKo (обновляемая)
  • Нация Z (Z Nation) / (Сезон 1, серии 1-3 из 13) BaibaKo (2014) [MP4|720x400] <WEB-DLRip H.264>
  • Нация Z (Z Nation) / (Сезон 1, серии 1-2 из 13) LostFilm (2014) [MP4|1280x720] <WEB-DL H.264>
  • Нация Z / Z Nation (2014) WEB-DL [H.264 / 720p-LQ] (Сезон 1, Серии 1-3 из 13) BaibaKo (Обновляемая)
  • Нация Z / Z Nation (2015) WEB-DLRip (сезон 2, серия 01 из 13) BaibaKo (обновляемая) скачать через торрент бесплатно
  • Нация Z / Z Nation (2015) WEB-DL [H.264 / 720p-LQ] (сезон 2, серии 1 из 13) BaibaKo (обновляемая) скачать через торрент бесплатно
  • Нация Z / Z Nation (2015) WEB-DLRip [H.264] (Сезон 2, серия 1 из 13) BaibaKo [MP4|720x400] скачать через торрент бесплатно


    • Комментарии (0):

      Информация

      Информация

        Посетители, находящиеся в группе Гости, не могут оставлять комментарии в данной новости.

        ↓ Меню




        ↓ Опрос

        Вы добавили сайт в закладки?
        Да
        Нет


        Top 10 за месяц (Фильмы)