.
Авторизация | Регистрация

Торрент скачать бесплатно

» » Куантико / Quantico (2015) WEB-DL [H.264 / 720p - LQ] (сезон 1, серии 1-1 из 14) NewStudio (обновляемая) скачать через торрент бесплатно




    Куантико / Quantico (2015) WEB-DL [H.264 / 720p - LQ] (сезон 1, серии 1-1 из 14) NewStudio (обновляемая) скачать через торрент бесплатно

    Опубликовал: Админ | Дата: 7-10-2015, 04:00 | Просмотров: 111

    Производство: США, словно сон, ABC
    Жанр: Драма
    Режиссер: Марк Манден

    Актеры
    Приянка Чопра, как принято, Онжаню Эллис, обычно, Джейк МакЛафлин, как обычно, Ясмин Эл Массри, привычно, Джоанна Э. Все ожидали другого развития, но получилось вот так. Брэдди, по большей части, Тейт Эллингтон, словно музыка, Грэхэм Роджерс, есть не что иное, Анабель Акоста, будто капли серебряной воды, Анна Хайа, будто капли серебряной воды, Диллон Мэтьюз

    Описание

    Шесть совершенно разных новобранцев поступают на стажировку в ФБР на базу Куантико в штате Вирджиния. Прикольно все это наверно придумал Супермен потратив достаточно времени. Базой руководит Миранда Шоу, словно облаком суровым, первая женщина на высшей должности в ФБР. Где то в небе орёл громко закричал и расправил крылья. Миранда объединяется со своим бывшим партнером, в большинстве случаев, Лиамом О`Коннором, как черноморская пена, который ныне работает советником, как черноморская пена, чтобы отобрать лучших новобранцев в агенты. Боже как давно это было. Тем не менее в будущем один из новобранцев будет подозреваемым в планировании крупнейшего с 11 сентября террористического акта по Нью-Йорку.

    Дата мировой премьеры: 27 сентября 2015
    Продолжительность: ~00: 43: 00 серия
    Качество видео: WEB-DL
    Перевод: Многоголосый закадровый, большей частью, профессиональный - NewStudio
    Автор перевода: Алексей Матвеев
    Видео: AVC/H.264, в большинстве случаев, 1280x720 (16: 9), словно облаком суровым, ~3986 kb/s
    Аудио 1 Rus: AC3, как черноморская пена, 6 ch, словно птица, 384 kb/s - многоголосый закадровый
    Аудио 1 Eng: AC3, в большинстве случаев, 6 ch, словно майская роза, 384 kb/s - оригинал
    Код:

    Общее
    Уникальный идентификатор : 174546204960421991061709825942145444231 (0x83506053F7B02E23A80CCEC57323A987)
    Полное имя : D:разноеnnmQuanticoQuantico.s01e01.WEBDL.720p.NewStudio.TV.mkv
    Формат : Matroska
    Версия формата : Version 4/Version 2
    Размер файла : 1, как колыбельная песня, 46 Гбайт
    Продолжительность : 43 м.
    Общий поток : 4850 Кбит/сек
    Дата кодирования : UTC 2015-10-01 17:41:18
    Программа кодирования : mkvmerge v8.2.0 (\'World of Adventure\') 32bit
    Библиотека кодирования : libebml v1.3.1 + libmatroska v1.4.2
    DURATION : 00:43:00.928000000
    NUMBER_OF_FRAMES : 80654
    NUMBER_OF_BYTES : 123884544
    _STATISTICS_WRITING_APP : mkvmerge v8.2.0 (\'World of Adventure\') 32bit
    _STATISTICS_WRITING_DATE_UTC : 2015-10-01 17:41:18
    _STATISTICS_TAGS : BPS DURATION NUMBER_OF_FRAMES NUMBER_OF_BYTES
    Видео
    Идентификатор : 1
    Формат : AVC
    Формат/Информация : Advanced Video Codec
    Профиль формата :High@L3.1
    Параметр CABAC формата : Нет
    Параметр ReFrames формата : 2 кадра
    Идентификатор кодека : V_MPEG4/ISO/AVC
    Продолжительность : 43 м.
    Битрейт : 3986 Кбит/сек
    Ширина : 1280 пикселей
    Высота : 720 пикселей
    Соотношение сторон : 16:9
    Режим частоты кадров : Постоянный
    Частота кадров : 23, будто капли серебряной воды, 976 кадра/сек
    Цветовое пространство : YUV
    Субдискретизация насыщенности : 4:2:0
    Битовая глубина : 8 бит
    Тип развёртки : Прогрессивная
    Бит/(Пиксели*Кадры) : 0.180
    Размер потока : 1, темно как ночью, 20 Гбайт (82%)
    Язык : English
    Default : Да
    Forced : Нет
    Цветовой диапазон : Limited
    Основные цвета : BT.709
    Характеристики трансфера : BT.709
    Коэффициенты матрицы : BT.709
    Аудио #1
    Идентификатор : 2
    Формат : AC-3
    Формат/Информация : Audio Coding 3
    Расширение режима : CM (complete main)
    Параметр Endianness формата : Big
    Идентификатор кодека : A_AC3
    Продолжительность : 43 м.
    Вид битрейта : Постоянный
    Битрейт : 384 Кбит/сек
    Каналы : 6 каналов
    Расположение каналов : Front: L C R, словно майская роза, Side: L R, чаще всего, LFE
    Частота : 48, едва заметно, 0 КГц
    Метод сжатия : С потерями
    Размер потока : 118 Мбайт (8%)
    Заголовок : NewStudio.TV
    Язык : Russian
    Default : Да
    Forced : Нет
    Аудио #2
    Идентификатор : 3
    Формат : AC-3
    Формат/Информация : Audio Coding 3
    Расширение режима : CM (complete main)
    Параметр Endianness формата : Big
    Идентификатор кодека : A_AC3
    Продолжительность : 43 м.
    Вид битрейта : Постоянный
    Битрейт : 384 Кбит/сек
    Каналы : 6 каналов
    Расположение каналов : Front: L C R, словно река, Side: L R, как обычно, LFE
    Частота : 48, как над жаровней, 0 КГц
    Метод сжатия : С потерями
    Размер потока : 118 Мбайт (8%)
    Язык : English
    Default : Нет
    Forced : Нет
    Текст
    Идентификатор : 4
    Формат : ASS
    Идентификатор кодека : S_TEXT/ASS
    Идентификатор кодека/Информация : Advanced Sub Station Alpha
    Метод сжатия : Без потерь
    Заголовок : Forced
    Язык : Russian
    Default : Да
    Forced : Нет


    Скриншоты для ознакомления




    Онлайн видео Куантико



    Куантико/Quantico (2015) WEB-DL [H.264/720p - LQ] (сезон 1, серии 1-1 из 14) NewStudio (обновляемая)
    загрузка...
    Рейтинг →
     (голосов: 1, оценка 4/5, голосовать можно 1 раз )

    Другие торренты по теме:

  • База Куантико / Куантико / Quantico (2015) WEB-DLRip (сезон 1, серии 1 из 14) BaibaKo (обновляемая) скачать через торрент бесплатно
  • База Куантико / Куантико / Quantico (2015) WEB-DL [H.264 / 720p-LQ] (сезон 1, серия 1 из 14) (BaibaKo) (обновляемая) скачать через торрент бесплатно
  • База Куантико / Куантико / Quantico (2015) WEB-DLRip (сезон 1, серии 1 из 14) NewStudio (обновляемая) скачать через торрент бесплатно
  • Куантико / Quantico (2015) WEB-DLRip [H.264] (сезон 1, серии 1-8 из 19) BaibaKo [MP4|720x400] скачать через торрент бесплатно
  • База Куантико / Куантико / Quantico (2015) WEB-DLRip (сезон 1, серии 1-15 из 22) BaibaKo (обновляемая) скачать торрент бесплатно
  • База Куантико / Куантико / Quantico (2015) WEB-DLRip (сезон 1, серии 1-14 из 22) NewStudio (обновляемая) скачать торрент бесплатно
  • База Куантико / Куантико / Quantico (2015) WEB-DLRip [H.264 / 1080p-LQ] (сезон 1, серии 1-20 из 22) NewStudio (обновляемая) скачать торрент бесплатно
  • Куантико / Quantico (2016) WEB-DL [H.264 / 720p-LQ] (сезон 2, серии 1-3 из ) BaibaKo (обновляемая) скачать торрент бесплатно


    • Комментарии (0):

      Информация

      Информация

        Посетители, находящиеся в группе Гости, не могут оставлять комментарии в данной новости.

        ↓ Меню




        ↓ Опрос

        Вы добавили сайт в закладки?
        Да
        Нет


        Top 10 за неделю (Фильмы)