.
Авторизация | Регистрация
Хочешь лучшие торренты? Добавь свой email!
Добавить

Торрент скачать бесплатно

» » Ментовские войны (2015) HDTVRip (сезон 9, серии 1-2 из 16) (обновляемая) скачать через торрент бесплатно




    Ментовские войны (2015) HDTVRip (сезон 9, серии 1-2 из 16) (обновляемая) скачать через торрент бесплатно

    Опубликовал: Админ | Дата: 7-10-2015, 04:00 | Просмотров: 189

    Производство: Россия/Студия Панорама
    Жанр: детектив, криминал
    Режиссер: Денис Скворцов

    Актеры
    Александр Устюгов, Дмитрий Быковский-Ромашов, Всеволод Цурило, Ольга Павловец, Андрей Родимов, Дмитрий Мухамадеев, Сергей Выборнов, Андрей Кузнецов, Сергей Гарусов, Дмитрий Соловьев и др.

    Описание

    Подполковник Роман Шилов возвращается в строй! Теперь он — начальник регионального спецотдела МВД по раскрытию особо тяжких преступлений. Его личная война с коррупцией в рядах спецслужб переходит на новый уровень. Многим его возвращение не дает покоя. Чтобы понять, кому именно, и раскрыть истинные причины происходящего, он вступает в противоборство с мощной группировкой, метко названной его коллегой синдикатом киллеров. На новом посту у Романа карт-бланш: теперь он сам формирует штат своего подразделения и получает большую свободу оперативных действий под руководством непосредственного начальника – генерала Рощина. Воспользовавшись расположением генерала, Шилов возвращает на службу Джексона, а также добивается перевода в свое подчинение Павла Арнаутова и Светланы Морозовой.

    Продолжительность: ~ 00: 44: 00 серия
    Качество видео: HDTVRip
    Видео: XviD, 704x400 (16: 9), ~ 1650 Кбит/с
    Аудио: MP3, 48000 Гц, 2 канала, 128 Кбит/с
    General
    Complete name : Mentovskie.vojny.s09.e01.2015.HDTVRip.avi
    Format : AVI
    Format/Info : Audio Video Interleave
    File size : 571 MiB
    Duration : 44mn 41s
    Overall bit rate : 1 787 Kbps
    Writing application : VirtualDubMod 1.5.10.3 |www.virtualdub-fr.org|| (build 2550/release)
    Writing library : VirtualDubMod build 2550/release
    Video
    ID : 0
    Format : MPEG-4 Visual
    Format profile : Advanced Simple@L5
    Format settings, BVOP : 1
    Format settings, QPel : No
    Format settings, GMC : No warppoints
    Format settings, Matrix : Custom
    Codec ID : XVID
    Codec ID/Hint : XviD
    Duration : 44mn 41s
    Bit rate : 1 649 Kbps
    Width : 704 pixels
    Height : 400 pixels
    Display aspect ratio : 16: 9
    Frame rate : 25.000 fps
    Color space : YUV
    Chroma subsampling : 4: 2: 0
    Bit depth : 8 bits
    Scan type : Progressive
    Compression mode : Lossy
    Bits/(Pixel*Frame) : 0.234
    Stream size : 527 MiB (92%)
    Writing library : XviD 73
    Audio
    ID : 1
    Format : MPEG Audio
    Format version : Version 1
    Format profile : Layer 3
    Codec ID : 55
    Codec ID/Hint : MP3
    Duration : 44mn 41s
    Bit rate mode : Constant
    Bit rate : 128 Kbps
    Channel(s) : 2 channels
    Sampling rate : 48.0 KHz
    Compression mode : Lossy
    Stream size : 40.9 MiB (7%)
    Alignment : Aligned on interleaves
    Interleave, duration : 40 ms (1.00 video frame)
    Interleave, preload duration : 504 ms
    Writing library : LAME3.99r
    Encoding settings : -m s -V 4 -q 0 -lowpass 17 -b 128
    Автор рипа - ivandubskoj


    Скриншоты для ознакомления




    Онлайн видео Ментовские войны (2015) HDTVRip (сезон любимого сериала 9, серии 1



    Ментовские войны (2015) HDTVRip (сезон 9, серии 1-2 из 16) (обновляемая)
    загрузка...
    Рейтинг →
     (голосов: 1, оценка 5/5, голосовать можно 1 раз )

    Другие торренты по теме:

  • Ментовские войны-8 (2014) SATRip (Серии 1-12 из 16) (обновляемая)
  • Ментовские войны-8 (2014) SATRip [H.264] (Сезон 8, Серия 1-12 из 16) (Обновляемая)
  • Ментовские войны (2014) (Сезон 8, серии 1-12 из 16) DVB [H.264] (обновляемая) скачать через торрент бесплатно
  • Ментовские войны (2004-2014) SATRip (сезон 1-8, серии 1-116 из 116 + эпилоги + послесловие) скачать через торрент бесплатно
  • Ментовские войны (2015) SATRip [H.264] (сезон 9, серии 1-2 из 16) (обновляемая) скачать через торрент бесплатно
  • Ментовские войны (2015) SATRip (сезон 9, серии 1-2 из 16) (обновляемая) скачать через торрент бесплатно
  • Ментовские войны (2015) HDTV [H.264 / 1080i-LQ] (сезон 9, серии 1-4 из 16) (обновляемая) скачать через торрент бесплатно
  • Ментовские войны (2015) HDTVRip (сезон 9, серии 1-16 из 16)


    • Комментарии (0):

      Информация

      Информация

        Посетители, находящиеся в группе Гости, не могут оставлять комментарии в данной новости.

        ↓ Меню




        ↓ Опрос

        Вы добавили сайт в закладки?
        Да
        Нет


        Top 10 за месяц (Фильмы)