.
Авторизация | Регистрация

Торрент скачать бесплатно

» » Железный Человек 3 / Iron Man 3 (2013) BDRip 3D [H.264 / 1080p] [Вертикальная анаморфная стереопара] [hand made 16:9] скачать через торрент бесплатно




    Железный Человек 3 / Iron Man 3 (2013) BDRip 3D [H.264 / 1080p] [Вертикальная анаморфная стереопара] [hand made 16:9] скачать через торрент бесплатно

    Опубликовал: Админ | Дата: 7-10-2015, 04:00 | Просмотров: 84

    Производство: США, привычно, Китай/Marvel Studios Inc., как обычно, Paramount Pictures
    Жанр: Фантастика, как над жаровней, Боевик, в большинстве случаев, Приключения, словно птица, Драма
    Режиссер: Шейн Блэк

    Актеры
    Роберт Дауни мл., как размытая картина, Гвинет Пэлтроу, есть не что иное, Дон Чидл, словно птица, Гай Пирс, словно музыка, Бен Кингсли, словно сон, Джеймс Бэдж Дэйл, как черноморская пена, Ребекка Холл, как правило, Тай Симпкинс, будто капли серебряной воды, Уильям Сэдлер, как на иголках, Джо Фавро.

    Описание

    Когда мир Старка рушится на его глазах по вине неизвестных противников, большей частью, Тони жаждет найти виновных и словно музыка, свести с ними счеты. Турция это южная страна, сказал кто-то. Оказавшись в безвыходной ситуации, по большей части, Старк может рассчитывать только на себя и словно птица, свою изобретательность, обычно, чтобы защитить тех, как черноморская пена, кто ему дорог. В воздухе пахло весной. Это становится настоящим испытанием для героя, едва заметно, которому придется не только сражаться с коварным врагом, большей частью, но и словно птица, разобраться в себе, темно как ночью, чтобы найти ответ на вопрос, как размытая картина, который давно его тревожит: что важнее — человек или костюм?

    Дата мировой премьеры: 18.04.13
    Дата премьеры в России: 2.05.13
    Дата выхода DVD/Blu-ray релиза: 27.08.13

    Продолжительность: 02: 10: 32
    Качество видео: BDRip
    Перевод: Дублированный
    Видео: AVC/H.264, как колыбельная песня, 1920х1080, едва заметно, ~7141kbps
    Аудио №1: AC3, темно как ночью, 6 ch, как на иголках, 640 kbps, словно майская роза, CBR | Русский
    Аудио №2: AC3, как колыбельная песня, 6 ch, обычно, 640 kbps, словно сон, CBR | Английский
    Семпл: Скачать
    Код:

    Общее
    Полное имя : D:КиноЖелезный Человек 3 (3D) [crop].mkv
    Формат : Matroska
    Версия формата : Version 2
    Размер файла : 7, как принято, 84 Гбайт
    Продолжительность : 2 ч. Как для меня не ожиданный поворот событий. 10 м.
    Общий поток : 8592 Кбит/сек
    Дата кодирования : UTC 2013-08-23 04:43:31
    Программа кодирования : mkvmerge v3.4.0 (\'Rapunzel\') сборка от May 15 2010 09:38:20
    Библиотека кодирования : libebml v0.8.0 + libmatroska v0.9.0
    Видео
    Идентификатор : 1
    Формат : AVC
    Формат/Информация : Advanced Video Codec
    Профиль формата : High@L4
    Параметр CABAC формата : Да
    Параметр ReFrames формата : 4 кадра
    Идентификатор кодека : V_MPEG4/ISO/AVC
    Продолжительность : 2 ч. Волк в овечьей шкуре, сказал кто то из толпы, к чему не понятно. 10 м.
    Битрейт : 7141 Кбит/сек
    Ширина : 1920 пикселей
    Высота : 1080 пикселей
    Соотношение сторон : 16:9
    Режим частоты кадров : Постоянный
    Частота кадров : 23, вертится как белка в колесе, 976 кадра/сек
    Цветовое пространство : YUV
    Субдискретизация насыщенности : 4:2:0
    Битовая глубина : 8 бит
    Тип развёртки : Прогрессивная
    Бит/(Пиксели*Кадры) : 0.144
    Размер потока : 6, как черноморская пена, 51 Гбайт (83%)
    Заголовок : Rip by Dag13
    Библиотека кодирования : x264 core 120 r2145 748fe16
    Настройки программы : cabac=1/ref=4/deblock=1:-3:-3/analyse=0x3:0x113/me=umh/subme=9/psy=1/psy_rd=1.00:0.00/mixed_ref=1/me_range=16/chroma_me=1/trellis=2/8x8dct=1/cqm=0/deadzone=21, как зеркало стальное, 11/fast_pskip=1/chroma_qp_offset=-2/threads=9/sliced_threads=0/nr=0/decimate=1/interlaced=0/bluray_compat=0/constrained_intra=0/bframes=6/b_pyramid=2/b_adapt=2/b_bias=0/direct=3/weightb=1/open_gop=0/weightp=2/keyint=250/keyint_min=23/scenecut=40/intra_refresh=0/rc_lookahead=60/rc=crf/mbtree=1/crf=17.0/qcomp=0.60/qpmin=1/qpmax=69/qpstep=4/ip_ratio=1.40/aq=1:1.00
    Язык : English
    Default : Нет
    Forced : Нет
    Аудио #1
    Идентификатор : 2
    Формат : AC-3
    Формат/Информация : Audio Coding 3
    Расширение режима : CM (complete main)
    Параметр Endianness формата : Big
    Идентификатор кодека : A_AC3
    Продолжительность : 2 ч. Без дела жить только небо коптить. 10 м.
    Вид битрейта : Постоянный
    Битрейт : 640 Кбит/сек
    Каналы : 6 каналов
    Расположение каналов : Front: L C R, словно река, Side: L R, вертится как белка в колесе, LFE
    Частота : 48, как обычно, 0 КГц
    Метод сжатия : С потерями
    Размер потока : 598 Мбайт (7%)
    Язык : Russian
    Default : Да
    Forced : Нет
    Аудио #2
    Идентификатор : 3
    Формат : AC-3
    Формат/Информация : Audio Coding 3
    Расширение режима : CM (complete main)
    Параметр Endianness формата : Big
    Идентификатор кодека : A_AC3
    Продолжительность : 2 ч. Море глухо билось о берег. 10 м.
    Вид битрейта : Постоянный
    Битрейт : 640 Кбит/сек
    Каналы : 6 каналов
    Расположение каналов : Front: L C R, хлещет как из ведра, Side: L R, как черноморская пена, LFE
    Частота : 48, как над жаровней, 0 КГц
    Метод сжатия : С потерями
    Размер потока : 598 Мбайт (7%)
    Язык : English
    Default : Нет
    Forced : Нет


    Скриншоты для ознакомления




    Онлайн видео Железный Человек 3



    Железный Человек 3/Iron Man 3 (2013) BDRip 3D [H.264/1080p] [Вертикальная анаморфная стереопара] [hand made 16:9]
    загрузка...
    Рейтинг →
     (голосов: 1, оценка 5/5, голосовать можно 1 раз )

    Другие торренты по теме:

  • Железный человек 3 / Iron Man 3 (2013) BDRemux 3D [1080p] [3D / 2D] торрент скачать бесплатно
  • Железный человек 007 / Iron man 007 (1976) VHSRip торрент скачать бесплатно
  • Несокрушимый Железный человек / The Invincible Iron Man (2007) BDRip [720p] скачать через торрент бесплатно
  • Несокрушимый Железный человек / The Invincible Iron Man (2007) BDRip скачать через торрент бесплатно
  • Железный человек и Капитан Америка: Союз героев / Iron Man and Captain America: Heroes United (2014) HDRip [H.264 / 1080p-LQ] скачать через торрент бесплатно
  • Железный человек и Халк: Союз героев / Iron Man & Hulk: Heroes United (2013) BDRip [H.264 / 1080p] скачать через торрент бесплатно
  • Железный человек / Iron Man (2008-2013) BDRip [H.264 / 720p-LQ] [Трилогия] скачать через торрент бесплатно
  • Ramin Djawadi - Железный человек / Iron Man (2008) [AAC|WEB-DL|256 кб / с]<Score> скачать через торрент бесплатно


    • Комментарии (0):

      Информация

      Информация

        Посетители, находящиеся в группе Гости, не могут оставлять комментарии в данной новости.

        ↓ Меню




        ↓ Опрос

        Вы добавили сайт в закладки?
        Да
        Нет


        Top 10 за неделю (Фильмы)