.
Авторизация | Регистрация
Хочешь лучшие торренты? Добавь свой email!
Добавить

Торрент скачать бесплатно

» » Нюхач (2015) HDTVRip (сезон 2, серии 1-2 из 8) Обновляемая скачать через торрент бесплатно




    Нюхач (2015) HDTVRip (сезон 2, серии 1-2 из 8) Обновляемая скачать через торрент бесплатно

    Опубликовал: Админ | Дата: 6-10-2015, 04:02 | Просмотров: 111

    Производство: Украина/Pronto Film, Film.UA
    Жанр: детектив, драма, криминал
    Режиссер: Артем Литвиненко

    Актеры
    Кирилл Кяро, Иван Оганесян, Мария Аниканова, Нина Гогаева, Николай Чиндяйкин, Оксана Коляденко, Петр Крылов, Андрей Дебрин, Александр Тютин, Борис Каморзин и др.

    Описание

    Каждое преступление имеет свой запах. Самое интересное в это истории, что об этом Папа Римский ничего не знал. В новом сезон любимого сериалае захватывающего сериала Нюхач и Виктор Лебедев продолжают служить правосудию. Дар Нюхача и опыт Лебедева делают их тандем сильным и очень эффективным. Но им приходится сталкиваться не только с рядовыми преступниками: за каждым шагом Нюхача и Виктора следит таинственная организация, и словно река им приходится распутывать целую сеть из тайн, загадок и преступлений. Сумеет ли их дружба выдержать все испытания? И смогут ли они победить таинственного врага?

    Продолжительность: ~ 00: 57: 00 серия
    Качество видео: HDTVRip
    Видео: XviD, 720x400 (16: 9), ~1800 kb/s
    Аудио: AC-3, 48, 0 kHz, 2 ch, 192 kb/s, CBR
    Код:
    Общее
    Полное имя : D:Нюхач 2 сезон любимого сериала HDTVRipNyuhach.2.(01.serija).HDTVRip.avi
    Формат : AVI
    Формат/Информация : Audio Video Interleave
    Размер файла : 822 Мбайт
    Продолжительность : 57 м.
    Общий поток : 1996 Кбит/сек
    Программа кодирования : VirtualDubMod 1.5.10.3 (build 2550/release)
    Библиотека кодирования : VirtualDubMod build 2550/release
    Видео
    Идентификатор : 0
    Формат : MPEG-4 Visual
    Профиль формата : Advanced Simple@L5
    Параметр BVOP формата : 1
    Параметр QPel формата : Нет
    Параметр GMC формата : Без точки перехода
    Параметр матрицы формата : Выборочная
    Идентификатор кодека : XVID
    Идентификатор кодека/Подсказка : XviD
    Продолжительность : 57 м.
    Битрейт : 1795 Кбит/сек
    Ширина : 720 пикселей
    Высота : 400 пикселей
    Соотношение сторон : 16:9
    Частота кадров : 25, 000 кадров/сек
    Цветовое пространство : YUV
    Субдискретизация насыщенности : 4:2:0
    Битовая глубина : 8 бит
    Тип развёртки : Прогрессивная
    Метод сжатия : С потерями
    Бит/(Пиксели*Кадры) : 0.249
    Размер потока : 739 Мбайт (90%)
    Библиотека кодирования : XviD 73
    Аудио
    Идентификатор : 1
    Формат : AC-3
    Формат/Информация : Audio Coding 3
    Расширение режима : CM (complete main)
    Параметр Endianness формата : Big
    Идентификатор кодека : 2000
    Продолжительность : 57 м.
    Вид битрейта : Постоянный
    Битрейт : 192 Кбит/сек
    Каналы : 2 канала
    Расположение каналов : Front: L R
    Частота : 48, 0 КГц
    Битовая глубина : 16 бит
    Метод сжатия : С потерями
    Размер потока : 79, 0 Мбайт (10%)
    Выравнивание : Разделение по промежуткам
    Продолжительность промежутка : 40 мс. (1, 00 видеокадр)
    Время предзагрузки промежутка : 500 мс.


    Скриншоты для ознакомления




    Онлайн видео Нюхач (2015) HDTVRip (сезон любимого сериала 2, серии 1



    Нюхач (2015) HDTVRip (сезон 2, серии 1-2 из 8) Обновляемая
    загрузка...
    Рейтинг →
     (голосов: 1, оценка 3/5, голосовать можно 1 раз )

    Другие торренты по теме:

  • Нюхач (2015) HDTVRip [H.264 / 720p-LQ] (сезон 2, серии 1-2 из 8) (обновляемая) скачать через торрент бесплатно


    • Комментарии (0):

      Информация

      Информация

        Посетители, находящиеся в группе Гости, не могут оставлять комментарии в данной новости.

        ↓ Меню




        ↓ Опрос

        Вы добавили сайт в закладки?
        Да
        Нет


        Top 10 за месяц (Фильмы)