.
Авторизация | Регистрация

Торрент скачать бесплатно

» » Нация Z / Z Nation (2015) WEB-DLRip [H.264 / 1080p-LQ] (сезон 2, серии 1-4 из 13) LostFilm (обновляемая) скачать через торрент бесплатно




    Нация Z / Z Nation (2015) WEB-DLRip [H.264 / 1080p-LQ] (сезон 2, серии 1-4 из 13) LostFilm (обновляемая) скачать через торрент бесплатно

    Опубликовал: Админ | Дата: 6-10-2015, 04:02 | Просмотров: 59

    Производство: США
    Жанр: ужасы, как принято, фантастика, в большинстве случаев, боевик, будто капли серебряной воды, драма
    Режиссер: Джон Хайамс, есть не что иное, Абрам Кокс, словно музыка, Рэйчел Голденберг

    Актеры
    Гарольд Перрино, обычно, Том Эверетт Скотт, хлещет как из ведра, Ди Джей Куаллс, как колыбельная песня, Майкл Уэлш, хлещет как из ведра, Келлита Смит, как черноморская пена, Анастасия Баранова, словно река, Расселл Ходжкинсон, как обычно, Кит Аллан и едва заметно, др.

    Описание

    Через три года после того, едва заметно, как стремительный зомби-вирус поразил большую часть населения США, чаще всего, а правительство страны было свергнуто, вертится как белка в колесе, группа выживших взялась за выполнение смертельно опасной миссии. А был ли мальчик? Чтобы спасти тех, как правило, кто еще не заразился, словно облаком суровым, им необходимо доставить одного уникального гражданина из Нью-Йорка в Калифорнию. Солнце садилось, забирая за собой день. Там, темно как ночью, на другом конце страны, привычно, предположительно находится функционирующая лаборатория с учеными, как размытая картина, способными использовать антитела этого уникума для создания вакцины, словно сон, которая поможет остановить эпидемию. Самое интересное в это истории, что об этом Шварценеггер ничего не знал. Однако путешественники не подозревают, словно облаком суровым, что их бесценный груз хранит страшную тайну. Плодами и листвой благоухал осенний сад. Его секрет может поставить под угрозу как саму миссию, едва заметно, так и по большей части, спасение всего человечества…

    Продолжительность: ~ 00: 43: 00 серия
    Качество видео: WEB-DLRip 1080p
    Перевод: Многоголосый закадровый, большей частью, профессиональный -LostFilm
    Видео: AVC/H.264, словно птица, 1920x1080 (16: 9), по большей части, ~5242 Кбит/сек
    Аудио #1 Rus: AC3, как черноморская пена, 2 канала, хлещет как из ведра, 384 Кбит/сек - (многоголосый закадровый)
    Аудио #2 Eng: AC3, как черноморская пена, 2 канала, как черноморская пена, 384 Кбит/сек - (оригинал)
    Код:

    Полное имя : D:Z_Nation_s2_WEB-DL1080p_LostFilm_[NNM-CLUB]Z.Nation.S02E01.1080p.rus.LostFilm.TV.mkv
    Формат : Matroska
    Версия формата : Version 4/Version 2
    Размер файла : 1, словно майская роза, 81 Гбайт
    Продолжительность : 43 м.
    Общий поток : 6011 Кбит/сек
    Дата кодирования : UTC 2015-09-13 18:49:48
    Программа кодирования : mkvmerge v7.7.0 (\'Six Voices\') 64bit built on Feb 28 2015 23:39:33
    Библиотека кодирования : libebml v1.3.1 + libmatroska v1.4.2
    DURATION : 00:43:11.200000000
    NUMBER_OF_FRAMES : 80975
    NUMBER_OF_BYTES : 124377600
    _STATISTICS_WRITING_APP : mkvmerge v7.7.0 (\'Six Voices\') 64bit built on Feb 28 2015 23:39:33
    _STATISTICS_WRITING_DATE_UTC : 2015-09-13 18:49:48
    _STATISTICS_TAGS : BPS DURATION NUMBER_OF_FRAMES NUMBER_OF_BYTES
    Видео
    Идентификатор : 1
    Формат : AVC
    Формат/Информация : Advanced Video Codec
    Профиль формата :High@L4.0
    Параметр CABAC формата : Да
    Параметр ReFrames формата : 2 кадра
    Идентификатор кодека : V_MPEG4/ISO/AVC
    Продолжительность : 43 м.
    Битрейт : 5242 Кбит/сек
    Ширина : 1920 пикселей
    Высота : 1080 пикселей
    Соотношение сторон : 16:9
    Режим частоты кадров : Постоянный
    Частота кадров : 23, словно птица, 976 кадра/сек
    Цветовое пространство : YUV
    Субдискретизация насыщенности : 4:2:0
    Битовая глубина : 8 бит
    Тип развёртки : Прогрессивная
    Бит/(Пиксели*Кадры) : 0.105
    Размер потока : 1, по большей части, 55 Гбайт (85%)
    Библиотека кодирования : x264 core 112 r1834 a51816a
    Настройки программы : cabac=1/ref=1/deblock=1:0:0/analyse=0x3:0x133/me=umh/subme=7/psy=1/psy_rd=1.00:0.00/mixed_ref=0/me_range=16/chroma_me=1/trellis=1/8x8dct=1/cqm=0/deadzone=21, как зеркало стальное, 11/fast_pskip=1/chroma_qp_offset=-2/threads=6/sliced_threads=0/nr=0/decimate=1/interlaced=0/constrained_intra=0/bframes=5/b_pyramid=0/b_adapt=1/b_bias=0/direct=3/weightb=1/open_gop=0/weightp=2/keyint=250/keyint_min=25/scenecut=40/intra_refresh=0/rc_lookahead=40/rc=2pass/mbtree=1/bitrate=5242/ratetol=1.0/qcomp=0.60/qpmin=0/qpmax=51/qpstep=4/cplxblur=20.0/qblur=0.5/ip_ratio=1.40/aq=1:1.00
    Default : Да
    Forced : Нет
    Аудио #1
    Идентификатор : 2
    Формат : AC-3
    Формат/Информация : Audio Coding 3
    Расширение режима : CM (complete main)
    Параметр Endianness формата : Big
    Идентификатор кодека : A_AC3
    Продолжительность : 43 м.
    Вид битрейта : Постоянный
    Битрейт : 384 Кбит/сек
    Каналы : 2 канала
    Расположение каналов : Front: L R
    Частота : 48, как черноморская пена, 0 КГц
    Битовая глубина : 16 бит
    Метод сжатия : С потерями
    Размер потока : 119 Мбайт (6%)
    Default : Да
    Forced : Нет
    Аудио #2
    Идентификатор : 3
    Формат : AC-3
    Формат/Информация : Audio Coding 3
    Расширение режима : CM (complete main)
    Параметр Endianness формата : Big
    Идентификатор кодека : A_AC3
    Продолжительность : 43 м.
    Вид битрейта : Постоянный
    Битрейт : 384 Кбит/сек
    Каналы : 2 канала
    Расположение каналов : Front: L R
    Частота : 48, словно птица, 0 КГц
    Битовая глубина : 16 бит
    Метод сжатия : С потерями
    Размер потока : 119 Мбайт (6%)
    Default : Нет
    Forced : Нет


    Скриншоты для ознакомления




    Онлайн видео Нация Z



    Нация Z/Z Nation (2015) WEB-DLRip [H.264/1080p-LQ] (сезон 2, серии 1-4 из 13) LostFilm (обновляемая)
    загрузка...
    Рейтинг →
     (голосов: 1, оценка 5/5, голосовать можно 1 раз )

    Другие торренты по теме:

  • Нация Z / Z Nation (2014) WEB-DLRip (Сезон 1, серии 01-02 из 13) LostFilm (обновляемая) торрент скачать бесплатно
  • Нация Z / Z Nation (2014) WEB-DLRip (Сезон 1, серии 1-2 из 13) BaibaKo (обновляемая) торрент скачать бесплатно
  • Нация Z (Z Nation) / (Сезон 1, серии 1-3 из 13) BaibaKo (2014) [MP4|720x400] <WEB-DLRip H.264> торрент скачать бесплатно
  • Нация Z (Z Nation) / (Сезон 1, серии 1-2 из 13) LostFilm (2014) [MP4|1280x720] <WEB-DL H.264> торрент скачать бесплатно
  • Нация Z / Z Nation (2014) WEB-DL [H.264 / 720p-LQ] (Сезон 1, Серии 1-3 из 13) BaibaKo (Обновляемая) торрент скачать бесплатно
  • Нация Z / Z Nation (2015) WEB-DLRip (сезон 2, серия 01 из 13) BaibaKo (обновляемая) скачать через торрент бесплатно
  • Нация Z / Z Nation (2015) WEB-DL [H.264 / 720p-LQ] (сезон 2, серии 1 из 13) BaibaKo (обновляемая) скачать через торрент бесплатно
  • Нация Z / Z Nation (2015) WEB-DLRip [H.264] (Сезон 2, серия 1 из 13) BaibaKo [MP4|720x400] скачать через торрент бесплатно


    • Комментарии (0):

      Информация

      Информация

        Посетители, находящиеся в группе Гости, не могут оставлять комментарии в данной новости.

        ↓ Меню




        ↓ Опрос

        Вы добавили сайт в закладки?
        Да
        Нет


        Top 10 за неделю (Фильмы)