.
Авторизация | Регистрация
Хочешь лучшие торренты? Добавь свой email!
Добавить

Торрент скачать бесплатно

» » Нюхач (2015) HDTV [H.264 / 1080i-LQ] (сезон 2, серии 1-2 из 8) (обновляемая) скачать через торрент бесплатно




    Нюхач (2015) HDTV [H.264 / 1080i-LQ] (сезон 2, серии 1-2 из 8) (обновляемая) скачать через торрент бесплатно

    Опубликовал: Админ | Дата: 6-10-2015, 04:02 | Просмотров: 114

    Производство: Украина/Film.ua Production
    Жанр: детектив, драма, криминал
    Режиссер: Артем Литвиненко

    Актеры
    Кирилл Кяро, Иван Оганесян, Мария Аниканова, Нина Гогаева, Николай Чиндяйкин, Оксана Коляденко, Петр Крылов, Андрей Дебрин, Александр Тютин, Борис Каморзин и др.

    Описание

    Каждое преступление имеет свой запах… В новом сезон любимого сериалае захватывающего сериала Нюхач и Виктор Лебедев продолжают служить правосудию. Дар Нюхача и опыт Лебедева делают их тандем сильным и очень эффективным. Но им приходится сталкиваться не только с рядовыми преступниками: за каждым шагом Нюхача и Виктора следит таинственная организация, и как принято им приходится распутывать целую сеть из тайн, загадок и преступлений. Сумеет ли их дружба выдержать все испытания? И смогут ли они победить таинственного врага?

    Продолжительность: ~00: 57: 00 серия
    Качество видео: WEB-DLRip
    Видео: AVC/H.264, 1920х1080 (16: 9), ~6750 kbps
    Аудио: AC3, 2 ch, 192 kbps, CBR
    Код:
    Общее
    Уникальный идентификатор : 219711318469383950501243108651801940522 (0xA54ADC5933725BE9B1E4177103EE922A)
    Полное имя : E:DOWNLOADSНюхач (2 сезон любимого сериала) (2015) HDTV 1080Нюхач 2 - 01 серия.mkv
    Формат : Matroska
    Версия формата : Version 2
    Размер файла : 2, 76 Гбайт
    Продолжительность : 57 м.
    Общий поток : 6871 Кбит/сек
    Дата кодирования : UTC 2015-10-05 19:00:44
    Программа кодирования : mkvmerge v6.1.0 (\'Old Devil\') built on Mar 4 2013 09:10:42
    Библиотека кодирования : libebml v1.3.0 + libmatroska v1.4.0
    Видео
    Идентификатор : 1
    Формат : AVC
    Формат/Информация : Advanced Video Codec
    Профиль формата : High@L4
    Параметр CABAC формата : Да
    Параметр ReFrames формата : 3 кадра
    Идентификатор кодека : V_MPEG4/ISO/AVC
    Продолжительность : 57 м.
    Битрейт : 6542 Кбит/сек
    Ширина : 1920 пикселей
    Высота : 1080 пикселей
    Соотношение сторон : 16:9
    Режим частоты кадров : Постоянный
    Частота кадров : 25, 000 кадров/сек
    Стандарт вещания : Component
    Цветовое пространство : YUV
    Субдискретизация насыщенности : 4:2:0
    Битовая глубина : 8 бит
    Тип развёртки : Чересстрочная
    Порядок развёртки : Верхнее поле первое
    Бит/(Пиксели*Кадры) : 0.126
    Размер потока : 2, 63 Гбайт (95%)
    Default : Да
    Forced : Нет
    Цветовой диапазон : Limited
    Основные цвета : BT.709
    Характеристики трансфера : BT.709
    Коэффициенты матрицы : BT.709
    Аудио
    Идентификатор : 2
    Формат : AC-3
    Формат/Информация : Audio Coding 3
    Расширение режима : CM (complete main)
    Параметр Endianness формата : Big
    Идентификатор кодека : A_AC3
    Продолжительность : 57 м.
    Вид битрейта : Постоянный
    Битрейт : 192 Кбит/сек
    Каналы : 2 канала
    Расположение каналов : Front: L R
    Частота : 48, 0 КГц
    Метод сжатия : С потерями
    Размер потока : 79, 0 Мбайт (3%)
    Default : Да
    Forced : Нет


    Скриншоты для ознакомления




    Онлайн видео Нюхач (2015) HDTV [H.264



    Нюхач (2015) HDTV [H.264/1080i-LQ] (сезон 2, серии 1-2 из 8) (обновляемая)
    загрузка...
    Рейтинг →
     (голосов: 1, оценка 3/5, голосовать можно 1 раз )

    Другие торренты по теме:

  • Нюхач (2015) WEB-DLRip [H.264 / 1080p-LQ] (сезон 2, серии 1 из 8) (обновляемая) скачать через торрент бесплатно
  • Нюхач (2015) WEB-DLRip [H.264 / 720p-LQ] (сезон 2, серии 1 из 8) (обновляемая) скачать через торрент бесплатно
  • Нюхач (2015) WEB-DLRip (сезон 2, серии 1- из 8) (обновляемая) скачать через торрент бесплатно
  • Нюхач (2015) HDTVRip (сезон 2, серии 1-2 из 8) Обновляемая скачать через торрент бесплатно
  • Нюхач (2015) SATRip (сезон 2, серии 1-2 из 8) (обновляемая) скачать через торрент бесплатно
  • Нюхач (2013) BDRip [H.264 / 720p] (сезон 1, серии 1-8 из 8) скачать через торрент бесплатно
  • Нюхач (2013) BDRemux [H.264 / 1080i] (сезон 1, серии 1-8 из 8) скачать через торрент бесплатно
  • Нюхач (2015) HDTVRip [H.264 / 720p-LQ] (сезон 2, серии 1-2 из 8) (обновляемая) скачать через торрент бесплатно


    • Комментарии (0):

      Информация

      Информация

        Посетители, находящиеся в группе Гости, не могут оставлять комментарии в данной новости.

        ↓ Меню




        ↓ Опрос

        Вы добавили сайт в закладки?
        Да
        Нет


        Top 10 за месяц (Фильмы)