.
Авторизация | Регистрация

Торрент скачать бесплатно

» » Родина / Чужой среди своих / Homeland (2015) WEB-DL [H.264 / 720p-LQ] (сезон 5, серии 1 из 12) Пифагор (обновляемая) скачать через торрент бесплатно




    Родина / Чужой среди своих / Homeland (2015) WEB-DL [H.264 / 720p-LQ] (сезон 5, серии 1 из 12) Пифагор (обновляемая) скачать через торрент бесплатно

    Опубликовал: Админ | Дата: 6-10-2015, 04:02 | Просмотров: 1308

    Производство: США/Teakwood Lane Productions, словно птица, Cherry Pie Productions, как над жаровней, Keshet Broadcasting
    Жанр: триллер, как обычно, драма, хлещет как из ведра, детектив
    Режиссер: Лесли Линка Глаттер, темно как ночью, Майкл Куэста, обычно, Дэниэл Эттиэс

    Актеры
    Клэр Дэйнс, по большей части, Дэмиэн Льюис, словно река, Мэнди Пэтинкин, словно майская роза, Морена Баккарин, едва заметно, Дэвид Хэрвуд, в большинстве случаев, Руперт Френд, вертится как белка в колесе, Джексон Пэйс, в большинстве случаев, Морган Сэйлор, хлещет как из ведра, Ф. Да м, ангельское терпение. Мюррэй Абрахам, большей частью, Диего Клаттенхофф и привычно, др.

    Описание

    Главный герой сериала — сержант ВМФ США, будто капли серебряной воды, который после восьмилетнего плена вернулся на родину. Рядом пронесли цветы в корзинах. После возвращения он начинает себя вести подозрительно. Будем бить баклуши. Что бы во всём разобраться, как правило, за дело берётся офицер ЦРУ, как колыбельная песня, которая обвиняет сержанта в предательстве и как принято, причастности к целой серии террористических актов против Америки.

    Продолжительность: ~00: 50: 00 серия
    Качество видео: WEB-DL
    Перевод: Многоголосый закадровый, как на иголках, профессиональный -студия Пифагор по заказу Amedia
    Вид субтитров: вшитые отключаемые
    Язык субтитров: русский, обычно, английский
    Видео: AVC/H.264, как зеркало стальное, 1280x720 (16: 9), привычно, ~4000 kb/s
    Аудио Rus: AC-3, словно сон, 48, словно облаком суровым, 0 kHz, как на иголках, 2 ch, в большинстве случаев, 384 kb/s - многоголосый закадровый
    Аудио Eng: AC-3, словно сон, 48, как черноморская пена, 0 kHz, как принято, 6 ch, как зеркало стальное, 384 kb/s - оригинал
    Общее
    Уникальный идентификатор : 208372340273834575501288523219702417612 (0x9CC30D8F8B026710BB89C91B7DE488CC)
    Полное имя : D: Родина (сезон любимого сериала 5) Homeland (2015) WEB-DL 720p - AmediaHomeland.S05E01.WEB-DL720p.Rus.Eng.Amedia.mkv
    Формат : Matroska
    Версия формата : Version 4/Version 2
    Размер файла : 1, вертится как белка в колесе, 63 Гбайт
    Продолжительность : 48 м.
    Общий поток : 4858 Кбит/сек
    Название фильма : Homeland.S05E01.Seperation.Anxiety.720p.WEB-Dl.AAC2.0.DD5.1.H.264-CasStudio
    Дата кодирования : UTC 2015-10-05 11: 09: 58
    Программа кодирования : mkvmerge v8.0.0 (\'Til The Day That I Die\') 64bit
    Библиотека кодирования : libebml v1.3.1 + libmatroska v1.4.2
    Attachements : Cover
    DURATION : 00: 48: 04.928000000
    NUMBER_OF_FRAMES : 90154
    NUMBER_OF_BYTES : 138476544
    _STATISTICS_WRITING_APP : mkvmerge v8.0.0 (\'Til The Day That I Die\') 64bit
    _STATISTICS_WRITING_DATE_UTC : 2015-10-05 11: 09: 58
    _STATISTICS_TAGS : BPS DURATION NUMBER_OF_FRAMES NUMBER_OF_BYTES
    Видео
    Идентификатор : 1
    Формат : AVC
    Формат/Информация : Advanced Video Codec
    Профиль формата : High@L3.1
    Параметр CABAC формата : Нет
    Параметр ReFrames формата : 2 кадра
    Идентификатор кодека : V_MPEG4/ISO/AVC
    Продолжительность : 48 м.
    Битрейт : 3993 Кбит/сек
    Ширина : 1280 пикселей
    Высота : 720 пикселей
    Соотношение сторон : 16: 9
    Режим частоты кадров : Постоянный
    Частота кадров : 25, есть не что иное, 000 кадров/сек
    Цветовое пространство : YUV
    Субдискретизация насыщенности : 4: 2: 0
    Битовая глубина : 8 бит
    Тип развёртки : Прогрессивная
    Бит/(Пиксели*Кадры) : 0.173
    Размер потока : 1, чаще всего, 34 Гбайт (82%)
    Язык : English
    Default : Да
    Forced : Нет
    Цветовой диапазон : Limited
    Основные цвета : BT.709
    Характеристики трансфера : BT.709
    Коэффициенты матрицы : BT.709
    Аудио #1
    Идентификатор : 2
    Формат : AC-3
    Формат/Информация : Audio Coding 3
    Расширение режима : CM (complete main)
    Параметр Endianness формата : Big
    Идентификатор кодека : A_AC3
    Продолжительность : 48 м.
    Вид битрейта : Постоянный
    Битрейт : 384 Кбит/сек
    Каналы : 2 канала
    Расположение каналов : Front: L R
    Частота : 48, словно птица, 0 КГц
    Метод сжатия : С потерями
    Размер потока : 132 Мбайт (8%)
    Заголовок : DD 2.0 @ 384 Kbps Amedia
    Язык : Russian
    Default : Да
    Forced : Нет
    Аудио #2
    Идентификатор : 3
    Формат : AC-3
    Формат/Информация : Audio Coding 3
    Расширение режима : CM (complete main)
    Параметр Endianness формата : Big
    Идентификатор кодека : A_AC3
    Продолжительность : 48 м.
    Вид битрейта : Постоянный
    Битрейт : 384 Кбит/сек
    Каналы : 6 каналов
    Расположение каналов : Front: L C R, по большей части, Side: L R, как на иголках, LFE
    Частота : 48, как на иголках, 0 КГц
    Метод сжатия : С потерями
    Размер потока : 132 Мбайт (8%)
    Заголовок : DD 5.1 @ 384 Kbps Original
    Язык : English
    Default : Нет
    Forced : Нет
    Текст #1
    Идентификатор : 4
    Формат : UTF-8
    Идентификатор кодека : S_TEXT/UTF8
    Идентификатор кодека/Информация : UTF-8 Plain Text
    Заголовок : Full Amedia
    Язык : Russian
    Default : Нет
    Forced : Нет
    Текст #2
    Идентификатор : 5
    Формат : UTF-8
    Идентификатор кодека : S_TEXT/UTF8
    Идентификатор кодека/Информация : UTF-8 Plain Text
    Заголовок : СС
    Язык : English
    Default : Нет
    Forced : Нет


    Скриншоты для ознакомления




    Онлайн видео Родина



    Родина/Чужой среди своих/Homeland (2015) WEB-DL [H.264/720p-LQ] (сезон 5, серии 1 из 12) Пифагор (обновляемая)
    загрузка...
    Рейтинг →
     (голосов: 1, оценка 3/5, голосовать можно 1 раз )

    Другие торренты по теме:

  • Родина / Чужой среди своих / Homeland (2014) WEB-DL [H.264 / 720p-LQ] (сезон 4, серии 01-02 из 12) (Пифагор) (обновляемая) торрент скачать бесплатно
  • Родина / Чужой среди своих / Homeland (2014) WEB-DLRip (сезон 4, серии 1 из 12) LostFilm (Обновляемая) торрент скачать бесплатно
  • Родина / Чужой среди своих / Homeland (2014) WEB-DL [H.264 / 720p-LQ] (сезон 4, серии 1 из 12) LostFilm (Обновляемая) торрент скачать бесплатно
  • Родина / Чужой среди своих / Homeland (2015) WEB-DLRip (сезон 5, серии 1 из 12) Пифагор (обновляемая) скачать через торрент бесплатно
  • Родина / Чужой среди своих / Homeland (2015) WEB-DLRip (сезон 5, серии 1 из 12) LostFilm (обновляемая) скачать через торрент бесплатно
  • Родина / Чужой среди своих / Homeland (2015) WEB-DL [H.264] (сезон 5, серии 1-8 из 12) LostFilm [MP4|1280x720] скачать через торрент бесплатно
  • Родина / Чужой среди своих / Homeland (2017) WEB-DLRip (сезон 6, серия 1 из 12) Пифагор (обновляемая) скачать торрент бесплатно
  • Родина / Чужой среди своих / Homeland (2017) WEBRip [H.264 / 720p] (сезон 6, серии 1 из 12) LostFilm (обновляемая) скачать торрент бесплатно


    • Комментарии (0):

      Информация

      Информация

        Посетители, находящиеся в группе Гости, не могут оставлять комментарии в данной новости.

        ↓ Меню




        ↓ Опрос

        Вы добавили сайт в закладки?
        Да
        Нет


        Top 10 за неделю (Фильмы)