.
Авторизация | Регистрация
Хочешь лучшие торренты? Добавь свой email!
Добавить

Торрент скачать бесплатно

» » Сонная Лощина / Sleepy Hollow (2015) WEB-DLRip (сезон 3, серии 1 из 18) LostFilm (обновляемая) скачать через торрент бесплатно




    Сонная Лощина / Sleepy Hollow (2015) WEB-DLRip (сезон 3, серии 1 из 18) LostFilm (обновляемая) скачать через торрент бесплатно

    Опубликовал: Админ | Дата: 5-10-2015, 04:00 | Просмотров: 1079

    Производство: США/Sketch Films, K/O Paper Products, 20th Century Fox Television
    Жанр: фантастика, триллер
    Режиссер: Дуглас Арниокоски, Пол А. Эдвардс, Кен Олин

    Актеры
    Том Мисон, Николь Бахари, Орландо Джонс, Катя Винтер, Линди Гринвуд, Джон Ноубл, Зэк Аппельман, Лэнс Гросс, Никки Рид, Шаннин Соссамон и др.

    Описание

    После смерти Икабода Крейна в одной из битв в войне за независимость на стороне сил генерала Джорджа Вашингтона, Икабод восстаёт из небытия в местечке Сонная лощина штата Нью-Йорк. Одновременно с ним восстаёт из мёртвых всадник без головы, голову которому Икабод Крейн отрубил перед собственной гибелью. Всадник без головы начинает убивать людей и главный герой должен остановить его, действуя совместно с лейтенантом полиции Эбби Миллс.

    Продолжительность: ~00: 44: 00 серия
    Качество видео: WEB-DLRip
    Перевод: Многоголосый закадровый, профессиональный -LostFilm
    Видео: XviD, 720x400 (16: 9), ~1400 kb/s
    Аудио Rus: MPEG Layer 3, 48, 0 kHz, 2 ch, 192 kb/s — многоголосый закадровый
    Общее
    Полное имя : D: Сонная лощина (сезон любимого сериала 3) Sleepy Hollow (2015) WEB-DLRip - LostFilmSleepy.Hollow.S03E01.rus.LostFilm.TV.avi
    Формат : AVI
    Формат/Информация : Audio Video Interleave
    Размер файла : 509 Мбайт
    Продолжительность : 44 м.
    Режим общего битрейта : Переменный
    Общий поток : 1611 Кбит/сек
    Программа кодирования : Nandub v1.0rc2
    Библиотека кодирования : Nandub build 1853/release
    Видео
    Идентификатор : 0
    Формат : MPEG-4 Visual
    Профиль формата : Advanced Simple@L5
    Параметр BVOP формата : Нет
    Параметр QPel формата : Нет
    Параметр GMC формата : Без точки перехода
    Параметр матрицы формата : Default (H.263)
    Идентификатор кодека : XVID
    Идентификатор кодека/Подсказка : XviD
    Продолжительность : 44 м.
    Битрейт : 1408 Кбит/сек
    Ширина : 720 пикселей
    Высота : 400 пикселей
    Соотношение сторон : 16: 9
    Частота кадров : 23, 976 кадра/сек
    Цветовое пространство : YUV
    Субдискретизация насыщенности : 4: 2: 0
    Битовая глубина : 8 бит
    Тип развёртки : Прогрессивная
    Метод сжатия : С потерями
    Бит/(Пиксели*Кадры) : 0.204
    Размер потока : 445 Мбайт (87%)
    Библиотека кодирования : XviD 1.2.1 (UTC 2008-12-04)
    Аудио
    Идентификатор : 1
    Формат : MPEG Audio
    Версия формата : Version 1
    Профиль формата : Layer 3
    Режим : Joint stereo
    Расширение режима : MS Stereo
    Идентификатор кодека : 55
    Идентификатор кодека/Подсказка : MP3
    Продолжительность : 44 м.
    Вид битрейта : Переменный
    Битрейт : 192 Кбит/сек
    Каналы : 2 канала
    Частота : 48, 0 КГц
    Метод сжатия : С потерями
    Размер потока : 59, 8 Мбайт (12%)
    Выравнивание : Соединение по промежуткам
    Продолжительность промежутка : 24 мс. (0, 58 видеокадр)
    Время предзагрузки промежутка : 482 мс.
    Библиотека кодирования : LAME3.97b
    Настройки программы : -m j -V 4 -q 3 -lowpass 18.6 --abr 192


    Скриншоты для ознакомления




    Онлайн видео Сонная Лощина



    Сонная Лощина/Sleepy Hollow (2015) WEB-DLRip (сезон 3, серии 1 из 18) LostFilm (обновляемая)
    загрузка...
    Рейтинг →
     (голосов: 1, оценка 4/5, голосовать можно 1 раз )

    Другие торренты по теме:

  • Сонная Лощина / Sleepy Hollow (2014) WEB-DLRip (сезон 2, серии 1 из 10) LostFilm (обновляемая)
  • Сонная лощина / Sleepy Hollow (1999) BDRip [720p]
  • Сонная Лощина / Sleepy Hollow (2014) WEB-DL [H.264 / 720p-LQ] (сезон 2, серии 1-11 из 18) LostFilm (обновляемая) скачать через торрент бесплатно
  • Сонная лощина / Sleepy Hollow (1999) BDRip [H.264]скачать через торрент бесплатно
  • Сонная Лощина / Sleepy Hollow (2014) WEB-DLRip (сезон 2, серии 1-18 из 18) (NewStudio) скачать через торрент бесплатно
  • Сонная Лощина / Sleepy Hollow (2015) WEB-DLRip (сезон 3, серии 1 из 18) NewStudio (обновляемая) скачать через торрент бесплатно
  • Сонная Лощина / Sleepy Hollow (2015) WEB-DL [H.264 / 1080p-LQ] (сезон 3, серии 1-2 из 18) LostFilm (обновляемая) скачать через торрент бесплатно
  • Сонная Лощина / Sleepy Hollow (2015) WEB-DL [H.264 / 720p] (сезон 3, серии 1-15 из 18) (NewStudio) (обновляемая)


    • Комментарии (0):

      Информация

      Информация

        Посетители, находящиеся в группе Гости, не могут оставлять комментарии в данной новости.

        ↓ Меню




        ↓ Опрос

        Вы добавили сайт в закладки?
        Да
        Нет


        Top 10 за месяц (Фильмы)