.
Авторизация | Регистрация
Хочешь лучшие торренты? Добавь свой email!
Добавить

Торрент скачать бесплатно

» » Черный список / The Blacklist (2015) WEB-DLRip (сезон 3, серии 1 из 22) LostFilm (Обновляемая) скачать через торрент бесплатно




    Черный список / The Blacklist (2015) WEB-DLRip (сезон 3, серии 1 из 22) LostFilm (Обновляемая) скачать через торрент бесплатно

    Опубликовал: Админ | Дата: 5-10-2015, 04:00 | Просмотров: 82

    Производство: США/Davis Entertainment, Universal Television, Sony Pictures Television
    Жанр: драма, криминал
    Режиссер: Майкл В. Уоткинс, Стивен А. Эделсон, Карен Гавиола

    Актеры
    Джеймс Спэйдер, Меган Бун, Диего Клаттенхофф, Гарри Дж. Самое интересное в это истории, что об этом Ющенко ничего не знал. Ленникс, Хишам Тафик, Райан Игголд, Амир Арисон, Можан Марно, Адриан Ленокс и др.

    Описание

    Один из самых разыскиваемых беглецов ФБР в исполнении Джеймса Спейдера (Секс, ложь и видео, Практика) неожиданно добровольно сдаётся властям. Самодовольный преступник-хитрец начинает играть с ФБР в каверзную многоходовую игру: он обещает помочь федералам поймать опаснейших преступников Америки при условии, что с ним будет работать неопытная сотрудница Лиз Кин. ФБР в лице Гарри Ленникса соглашается на странную сделку не без непредсказуемых последствий.

    Продолжительность: ~00: 43: 00 серия
    Качество видео: WEB-DLRip
    Перевод: Многоголосый закадровый, профессиональный -LostFilm
    Видео: XviD, 720х400 (16: 9), ~1330 kb/s
    Аудио Rus: MPEG Layer 3, 48, 0 kHz, 2 ch, 192 kb/s - многоголосый закадровый
    Общее
    Полное имя : D: Черный список (сезон любимого сериала 3) The Blacklist (2015) WEB-DLRip - LostFilmThe.Blacklist.S03E01.rus.LostFilm.TV.avi
    Формат : AVI
    Формат/Информация : Audio Video Interleave
    Размер файла : 474 Мбайт
    Продолжительность : 43 м.
    Режим общего битрейта : Переменный
    Общий поток : 1533 Кбит/сек
    Программа кодирования : Nandub v1.0rc2
    Библиотека кодирования : Nandub build 1853/release
    Видео
    Идентификатор : 0
    Формат : MPEG-4 Visual
    Профиль формата : Advanced Simple@L5
    Параметр BVOP формата : Нет
    Параметр QPel формата : Нет
    Параметр GMC формата : Без точки перехода
    Параметр матрицы формата : Default (H.263)
    Идентификатор кодека : XVID
    Идентификатор кодека/Подсказка : XviD
    Продолжительность : 43 м.
    Битрейт : 1330 Кбит/сек
    Ширина : 720 пикселей
    Высота : 400 пикселей
    Соотношение сторон : 16: 9
    Частота кадров : 23, 976 кадра/сек
    Цветовое пространство : YUV
    Субдискретизация насыщенности : 4: 2: 0
    Битовая глубина : 8 бит
    Тип развёртки : Прогрессивная
    Метод сжатия : С потерями
    Бит/(Пиксели*Кадры) : 0.193
    Размер потока : 411 Мбайт (87%)
    Библиотека кодирования : XviD 1.2.1 (UTC 2008-12-04)
    Аудио
    Идентификатор : 1
    Формат : MPEG Audio
    Версия формата : Version 1
    Профиль формата : Layer 3
    Режим : Joint stereo
    Расширение режима : MS Stereo
    Идентификатор кодека : 55
    Идентификатор кодека/Подсказка : MP3
    Продолжительность : 43 м.
    Вид битрейта : Переменный
    Битрейт : 192 Кбит/сек
    Каналы : 2 канала
    Частота : 48, 0 КГц
    Метод сжатия : С потерями
    Размер потока : 58, 6 Мбайт (12%)
    Выравнивание : Соединение по промежуткам
    Продолжительность промежутка : 24 мс. (0, 58 видеокадр)
    Время предзагрузки промежутка : 478 мс.
    Библиотека кодирования : LAME3.97b
    Настройки программы : -m j -V 4 -q 3 -lowpass 18.6 --abr 192


    Скриншоты для ознакомления




    Онлайн видео Черный список



    Черный список/The Blacklist (2015) WEB-DLRip (сезон 3, серии 1 из 22) LostFilm (Обновляемая)
    загрузка...
    Рейтинг →
     (голосов: 1, оценка 4/5, голосовать можно 1 раз )

    Другие торренты по теме:

  • Черный список / The Blacklist (2014) WEB-DLRip (сезон 2, серии 1 из 22) LostFilm (Обновляемая)
  • Черный список / The Blacklist (2014) WEB-DL [H.264 / 1080p-LQ] (Сезон 2, серии 01 из 22) LostFilm (обновляемая)
  • Черный список / The Blacklist (2013-2014) WEB-DLRip (Сезон 1, серии 1-22 из 22) LostFilm
  • Черный список / The Blacklist (2013-2014) WEB-DLRip [H.264 / 1080p-LQ] (Сезон 1, серии 01-22 из 22) LostFilm
  • Черный список (The Blacklist) / (2 Сезон, 1 серии из 22) LostFilm (2014) [MP4|720p-LQ] <WEB-DLRip H.264> (oбновляемая)
  • Черный список / The Blacklist (2014) WEB-DLRip (сезон 2, серии 1 из 22) To4ka (Обновляемая) скачать через торрент бесплатно
  • Черный список / The Blacklist (2014) WEB-DLRip (сезон 2, серии 1 из 22) Sony (Обновляемая) скачать через торрент бесплатно
  • Черный список / The Blacklist (2014) WEB-DLRip (сезон 2, серии 1-18 из 22) Кириллица (обновляемая) скачать через торрент бесплатно


    • Комментарии (0):

      Информация

      Информация

        Посетители, находящиеся в группе Гости, не могут оставлять комментарии в данной новости.

        ↓ Меню




        ↓ Опрос

        Вы добавили сайт в закладки?
        Да
        Нет


        Top 10 за месяц (Фильмы)