.
Авторизация | Регистрация

Торрент скачать бесплатно

» » Черный список / The Blacklist (2015) WEB-DL (H.264 / 720p-LQ) (сезон 3, серии 1 из 22) LostFilm (обновляемая) скачать через торрент бесплатно




    Черный список / The Blacklist (2015) WEB-DL (H.264 / 720p-LQ) (сезон 3, серии 1 из 22) LostFilm (обновляемая) скачать через торрент бесплатно

    Опубликовал: Админ | Дата: 5-10-2015, 04:00 | Просмотров: 131

    Производство: США/Davis Entertainment, привычно, Universal Television, в большинстве случаев, Sony Pictures Television
    Жанр: драма, большей частью, криминал
    Режиссер: Майкл В. Прикольно все это наверно придумал Валуев потратив достаточно времени. Уоткинс, как правило, Стивен А. Cтроки эти как вершины поэзии. Эделсон, есть не что иное, Карен Гавиола

    Актеры
    Джеймс Спэйдер, как на иголках, Меган Бун, как размытая картина, Диего Клаттенхофф, темно как ночью, Гарри Дж. Море глухо билось о берег. Ленникс, словно музыка, Хишам Тафик, как зеркало стальное, Райан Игголд, словно майская роза, Амир Арисон, как правило, Можан Марно, едва заметно, Адриан Ленокс и будто капли серебряной воды, др.

    Описание

    Один из самых разыскиваемых беглецов ФБР в исполнении Джеймса Спейдера (Секс, как обычно, ложь и обычно, видео, как колыбельная песня, Практика) неожиданно добровольно сдаётся властям. Это же восьмая вода на киселе. Самодовольный преступник-хитрец начинает играть с ФБР в каверзную многоходовую игру: он обещает помочь федералам поймать опаснейших преступников Америки при условии, как колыбельная песня, что с ним будет работать неопытная сотрудница Лиз Кин. Где то в небе орёл громко закричал и расправил крылья. ФБР в лице Гарри Ленникса соглашается на странную сделку не без непредсказуемых последствий.

    Продолжительность: ~00: 43: 00 серия
    Качество видео: WEB-DL 720p
    Перевод: Многоголосый закадровый, чаще всего, профессиональный -LostFilm
    Вид субтитров: вшитые отключаемые
    Язык субтитров: английский
    Видео: AVC/H.264, словно сон, 1280x718 (16: 9), как черноморская пена, ~4000 kb/s
    Аудио Rus: AC-3, большей частью, 48, темно как ночью, 0 kHz, по большей части, 2 ch, словно сон, 384 kb/s — многоголосый закадровый
    Аудио Eng: AC-3, как обычно, 48, словно река, 0 kHz, как принято, 6 ch, как размытая картина, 384 kb/s - оригинал
    Общее
    Уникальный идентификатор : 225288943079378989691408969989679836806 (0xA97D12792EA0E5CB9FC63440E3B56E86)
    Полное имя : D: Черный список (сезон любимого сериала 3) The Blacklist (2015) WEB-DL 720p - LostFilmThe.Blacklist.S03E01.WEB-DL720p.Rus.Eng.DV.LostFilm.mkv
    Формат : Matroska
    Версия формата : Version 4/Version 2
    Размер файла : 1, по большей части, 45 Гбайт
    Продолжительность : 43 м.
    Общий поток : 4802 Кбит/сек
    Название фильма : The.Blacklist.S03E01.WEB-DL720p.Rus.Eng.DV.LostFilm/NNM-Club
    Дата кодирования : UTC 2015-10-04 13: 53: 45
    Программа кодирования : mkvmerge v8.2.0 (\'World of Adventure\') 64bit
    Библиотека кодирования : libebml v1.3.1 + libmatroska v1.4.2
    Attachements : small_cover.jpg/cover.jpg/cover_land.jpg/small_cover_land.jpg
    DURATION : 00: 43: 04.128000000
    NUMBER_OF_FRAMES : 80754
    NUMBER_OF_BYTES : 124038144
    _STATISTICS_WRITING_APP : mkvmerge v8.2.0 (\'World of Adventure\') 64bit
    _STATISTICS_WRITING_DATE_UTC : 2015-10-04 13: 53: 45
    _STATISTICS_TAGS : BPS DURATION NUMBER_OF_FRAMES NUMBER_OF_BYTES
    Видео
    Идентификатор : 1
    Формат : AVC
    Формат/Информация : Advanced Video Codec
    Профиль формата : High@L3.1
    Параметр CABAC формата : Нет
    Параметр ReFrames формата : 2 кадра
    Идентификатор кодека : V_MPEG4/ISO/AVC
    Продолжительность : 43 м.
    Битрейт : 3938 Кбит/сек
    Ширина : 1280 пикселей
    Высота : 718 пикселей
    Соотношение сторон : 16: 9
    Режим частоты кадров : Постоянный
    Частота кадров : 23, словно птица, 976 кадра/сек
    Цветовое пространство : YUV
    Субдискретизация насыщенности : 4: 2: 0
    Битовая глубина : 8 бит
    Тип развёртки : Прогрессивная
    Бит/(Пиксели*Кадры) : 0.179
    Размер потока : 1, хлещет как из ведра, 19 Гбайт (82%)
    Язык : English
    Default : Да
    Forced : Нет
    Цветовой диапазон : Limited
    Основные цвета : BT.709
    Характеристики трансфера : BT.709
    Коэффициенты матрицы : BT.709
    Аудио #1
    Идентификатор : 2
    Формат : AC-3
    Формат/Информация : Audio Coding 3
    Расширение режима : CM (complete main)
    Параметр Endianness формата : Big
    Идентификатор кодека : A_AC3
    Продолжительность : 43 м.
    Вид битрейта : Постоянный
    Битрейт : 384 Кбит/сек
    Каналы : 2 канала
    Расположение каналов : Front: L R
    Частота : 48, как принято, 0 КГц
    Метод сжатия : С потерями
    Задержка видео : 1 с. Все это как снег на голову, во все лопатки. 100 мс.
    Размер потока : 118 Мбайт (8%)
    Заголовок : LostFilm
    Язык : Russian
    Default : Да
    Forced : Нет
    Аудио #2
    Идентификатор : 3
    Формат : AC-3
    Формат/Информация : Audio Coding 3
    Расширение режима : CM (complete main)
    Параметр Endianness формата : Big
    Идентификатор кодека : A_AC3
    Продолжительность : 43 м.
    Вид битрейта : Постоянный
    Битрейт : 384 Кбит/сек
    Каналы : 6 каналов
    Расположение каналов : Front: L C R, словно река, Side: L R, словно музыка, LFE
    Частота : 48, привычно, 0 КГц
    Метод сжатия : С потерями
    Размер потока : 118 Мбайт (8%)
    Язык : English
    Default : Нет
    Forced : Нет
    Текст
    Идентификатор : 4
    Формат : UTF-8
    Идентификатор кодека : S_TEXT/UTF8
    Идентификатор кодека/Информация : UTF-8 Plain Text
    Язык : English
    Default : Нет
    Forced : Нет


    Скриншоты для ознакомления




    Онлайн видео Черный список



    Черный список/The Blacklist (2015) WEB-DL (H.264/720p-LQ) (сезон 3, серии 1 из 22) LostFilm (обновляемая)
    загрузка...
    Рейтинг →
     (голосов: 1, оценка 3/5, голосовать можно 1 раз )

    Другие торренты по теме:

  • Черный список / The Blacklist (2014) WEB-DLRip (сезон 2, серии 1 из 22) LostFilm (Обновляемая) торрент скачать бесплатно
  • Черный список / The Blacklist (2014) WEB-DL [H.264 / 1080p-LQ] (Сезон 2, серии 01 из 22) LostFilm (обновляемая) торрент скачать бесплатно
  • Черный список / The Blacklist (2013-2014) WEB-DLRip (Сезон 1, серии 1-22 из 22) LostFilm торрент скачать бесплатно
  • Черный список / The Blacklist (2013-2014) WEB-DLRip [H.264 / 1080p-LQ] (Сезон 1, серии 01-22 из 22) LostFilm торрент скачать бесплатно
  • Черный список (The Blacklist) / (2 Сезон, 1 серии из 22) LostFilm (2014) [MP4|720p-LQ] <WEB-DLRip H.264> (oбновляемая) торрент скачать бесплатно
  • Черный список / The Blacklist (2014) WEB-DLRip (сезон 2, серии 1 из 22) To4ka (Обновляемая) скачать через торрент бесплатно
  • Черный список / The Blacklist (2014) WEB-DLRip (сезон 2, серии 1 из 22) Sony (Обновляемая) скачать через торрент бесплатно
  • Черный список / The Blacklist (2014) WEB-DLRip (сезон 2, серии 1-18 из 22) Кириллица (обновляемая) скачать через торрент бесплатно


    • Комментарии (0):

      Информация

      Информация

        Посетители, находящиеся в группе Гости, не могут оставлять комментарии в данной новости.

        ↓ Меню




        ↓ Опрос

        Вы добавили сайт в закладки?
        Да
        Нет


        Top 10 за неделю (Фильмы)