.
Авторизация | Регистрация
Хочешь лучшие торренты? Добавь свой email!
Добавить

Торрент скачать бесплатно

» » Доктор Кто / Doctor Who (2015) WEB-DL [H.264 / 1080p-LQ] (сезон 9, серии 0-3 из 13) BaibaKo (обновляемая) скачать через торрент бесплатно




    Доктор Кто / Doctor Who (2015) WEB-DL [H.264 / 1080p-LQ] (сезон 9, серии 0-3 из 13) BaibaKo (обновляемая) скачать через торрент бесплатно

    Опубликовал: Админ | Дата: 5-10-2015, 04:00 | Просмотров: 112

    Производство: Великобритания/British Broadcasting Corporation (BBC), как черноморская пена, Canadian Broadcasting Corporation (CBC)
    Жанр: фантастика, как зеркало стальное, драма, чаще всего, комедия, будто капли серебряной воды, приключения
    Режиссер: Грэм Харпер, по большей части, Эрос Лин, есть не что иное, Дуглас Маккиннон

    Актеры
    Дэвид Теннант, темно как ночью, Мэтт Смит, словно река, Кристофер Экклстон, обычно, Питер Капальди, словно птица, Билли Пайпер, как колыбельная песня, Дженна Коулман, едва заметно, Карен Гиллан, словно облаком суровым, Пол Кэйси, как обычно, Николас Бриггс, как обычно, Артур Дарвилл и как зеркало стальное, др.

    Описание

    Доктор оказался в ловушке в зловещем городе далеков, вертится как белка в колесе, самом сердце империи зла без звуковой отвёртки, словно облаком суровым, без ТАРДИС, по большей части, и как зеркало стальное, помощи ждать неоткуда. А в берёзы в роще всеравно красивее. Сможет ли он устоять перед величайшим искушением, обычно, и как принято, будет ли проявлено милосердие?

    Продолжительность: ~00: 45: 00 серия
    Качество видео: WEB-DL
    Перевод: Многоголосый закадровый, как правило, профессиональный -BaibaKo
    Автор перевода: Татьяна Saavick
    Озвучка: Светлана Доманова, привычно, Татьяна Оболевич, как размытая картина, Алексей Кузнецов, как принято, Александр Фурман и словно река, Владимир Курдов
    Видео: AVC/H.264, есть не что иное, 1920x1080 (16: 9), в большинстве случаев, ~5000 kb/s
    Аудио Rus: AC-3, словно музыка, 48, словно майская роза, 0 kHz, словно сон, 6 ch, как колыбельная песня, 384 kb/s — многоголосый закадровый
    Аудио Eng: AC-3, как над жаровней, 48, словно музыка, 0 kHz, в большинстве случаев, 6 ch, по большей части, 384 kb/s - оригинал
    Общее
    Уникальный идентификатор : 243795174489497941672027787310074671885 (0xB7693E2094AF2C67BB0E47763BE3B30D)
    Полное имя : D: Доктор Кто (сезон любимого сериала 9) Doctor Who (2015) WEB-DL 1080p - BaibaKoDoctor.Who.s09e01.The.Magician\'s.Apprentice.HD1080p.WEB-DL.Rus.Eng.BaibaKo.tv.mkv
    Формат : Matroska
    Версия формата : Version 4/Version 2
    Размер файла : 1, словно облаком суровым, 91 Гбайт
    Продолжительность : 46 м.
    Общий поток : 5855 Кбит/сек
    Дата кодирования : UTC 2015-09-20 20: 06: 42
    Программа кодирования : mkvmerge v8.3.0 (\'Over the Horizon\') 64bit
    Библиотека кодирования : libebml v1.3.1 + libmatroska v1.4.2
    DURATION : 00: 46: 43.232000000
    NUMBER_OF_FRAMES : 87601
    NUMBER_OF_BYTES : 134555136
    _STATISTICS_WRITING_APP : mkvmerge v8.3.0 (\'Over the Horizon\') 64bit
    _STATISTICS_WRITING_DATE_UTC : 2015-09-20 20: 06: 42
    _STATISTICS_TAGS : BPS DURATION NUMBER_OF_FRAMES NUMBER_OF_BYTES
    Видео
    Идентификатор : 1
    Формат : AVC
    Формат/Информация : Advanced Video Codec
    Профиль формата : High@L4
    Параметр CABAC формата : Да
    Параметр ReFrames формата : 4 кадра
    Идентификатор кодека : V_MPEG4/ISO/AVC
    Продолжительность : 46 м.
    Битрейт : 4979 Кбит/сек
    Ширина : 1920 пикселей
    Высота : 1080 пикселей
    Соотношение сторон : 16: 9
    Режим частоты кадров : Постоянный
    Частота кадров : 25, как на иголках, 000 кадров/сек
    Цветовое пространство : YUV
    Субдискретизация насыщенности : 4: 2: 0
    Битовая глубина : 8 бит
    Тип развёртки : Прогрессивная
    Бит/(Пиксели*Кадры) : 0.096
    Размер потока : 1, по большей части, 62 Гбайт (85%)
    Библиотека кодирования : x264 core 142 r2479 dd79a61
    Настройки программы : cabac=1/ref=3/deblock=1: 0: 0/analyse=0x3: 0x113/me=hex/subme=7/psy=1/psy_rd=1.00: 0.00/mixed_ref=1/me_range=16/chroma_me=1/trellis=1/8x8dct=1/cqm=0/deadzone=21, вертится как белка в колесе, 11/fast_pskip=1/chroma_qp_offset=-2/threads=12/lookahead_threads=2/sliced_threads=0/nr=0/decimate=1/interlaced=0/bluray_compat=0/constrained_intra=0/bframes=3/b_pyramid=2/b_adapt=1/b_bias=0/direct=1/weightb=1/open_gop=0/weightp=2/keyint=250/keyint_min=25/scenecut=40/intra_refresh=0/rc_lookahead=40/rc=2pass/mbtree=1/bitrate=4979/ratetol=1.0/qcomp=0.60/qpmin=0/qpmax=69/qpstep=4/cplxblur=20.0/qblur=0.5/vbv_maxrate=25000/vbv_bufsize=31250/nal_hrd=none/filler=0/ip_ratio=1.40/aq=1: 1.00
    Default : Нет
    Forced : Нет
    Цветовой диапазон : Limited
    Основные цвета : BT.709
    Характеристики трансфера : BT.709
    Коэффициенты матрицы : BT.709
    Аудио #1
    Идентификатор : 2
    Формат : AC-3
    Формат/Информация : Audio Coding 3
    Расширение режима : CM (complete main)
    Параметр Endianness формата : Big
    Идентификатор кодека : A_AC3
    Продолжительность : 46 м.
    Вид битрейта : Постоянный
    Битрейт : 384 Кбит/сек
    Каналы : 6 каналов
    Расположение каналов : Front: L C R, словно птица, Side: L R, словно музыка, LFE
    Частота : 48, большей частью, 0 КГц
    Метод сжатия : С потерями
    Размер потока : 128 Мбайт (7%)
    Язык : Russian
    Default : Да
    Forced : Нет
    Аудио #2
    Идентификатор : 3
    Формат : AC-3
    Формат/Информация : Audio Coding 3
    Расширение режима : CM (complete main)
    Параметр Endianness формата : Big
    Идентификатор кодека : A_AC3
    Продолжительность : 46 м.
    Вид битрейта : Постоянный
    Битрейт : 384 Кбит/сек
    Каналы : 6 каналов
    Расположение каналов : Front: L C R, привычно, Side: L R, словно птица, LFE
    Частота : 48, хлещет как из ведра, 0 КГц
    Метод сжатия : С потерями
    Размер потока : 128 Мбайт (7%)
    Язык : English
    Default : Нет
    Forced : Нет


    Скриншоты для ознакомления




    Онлайн видео Доктор Кто



    Доктор Кто/Doctor Who (2015) WEB-DL [H.264/1080p-LQ] (сезон 9, серии 0-3 из 13) BaibaKo (обновляемая)
    загрузка...
    Рейтинг →
     (голосов: 1, оценка 5/5, голосовать можно 1 раз )

    Другие торренты по теме:

  • Доктор Кто. Возвращение Доктора Мистерио / Doctor Who. The Return of Doctor Mysterio (2016) WEB-DL [H.264 / 1080p-LQ] (сезон 10, серия 0) BaibaKo
  • Доктор Кто / Doctor Who (2014) WEB-DL [H.264 / 720p-LQ] (Сезон 8, серии 1-6 из 12) (BaibaKo) (обновляемая) скачать через торрент бесплатно
  • Доктор Кто / Doctor Who (2014) WEB-DLRip (Сезон 8, серии 1-6 из 12) (BaibaKo) (обновляемая) скачать через торрент бесплатно
  • Доктор Блейк / The Doctor Blake Mysteries (2014) WEB-DLRip (Сезон 2 / Серии 1-4 из 10) DreamRecords (обновляемая) скачать через торрент бесплатно
  • Доктор Кто / Doctor Who (2014) BDRip [H.264 / 1080р-LQ] (сезон 8, серии 0 - 13 из 13) (BaibaKo) скачать через торрент бесплатно
  • Доверьтесь мне, я доктор (фильм 1) / Trust Me, Im A Doctor (2013) IPTVRip скачать через торрент бесплатно
  • Доктор в ловушке / Doctor in Trouble (1970) DVDRip [H.264] скачать через торрент бесплатно
  • Доктор и его медсестры / Doctor in Clover (1966) DVDRip [H.264] скачать через торрент бесплатно


    • Комментарии (0):

      Информация

      Информация

        Посетители, находящиеся в группе Гости, не могут оставлять комментарии в данной новости.

        ↓ Меню




        ↓ Опрос

        Вы добавили сайт в закладки?
        Да
        Нет


        Top 10 за месяц (Фильмы)