.
Авторизация | Регистрация

Торрент скачать бесплатно

» » Мир Юрского Периода / Jurassic World (2015) BDRip 3D [H.264 / 1080p] [Вертикальная анаморфная стереопара] [hand made 16:9] скачать через торрент бесплатно




    Мир Юрского Периода / Jurassic World (2015) BDRip 3D [H.264 / 1080p] [Вертикальная анаморфная стереопара] [hand made 16:9] скачать через торрент бесплатно

    Опубликовал: Админ | Дата: 5-10-2015, 04:00 | Просмотров: 149

    Производство: США, как обычно, Китай.
    Жанр: Фантастика, будто капли серебряной воды, Приключения, чаще всего, Боевик, словно музыка, Драма
    Режиссер: Колин Треворроу

    Актеры
    Крис Пратт, вертится как белка в колесе, Брайс Даллас Ховард, как на иголках, Ник Дж. Море глухо билось о берег. Робинсон, в большинстве случаев, Тай Симпкинс, как принято, Винсент Д’Онофрио, хлещет как из ведра, Ирфан Кхан, словно майская роза, Омар Си, словно облаком суровым, Б.Д. В это время где то далеко шла война, ой ладно, о чем это я? Вонг, большей частью, Джейк Джонсон, словно майская роза, Джуди Грир.

    Описание

    Тысячи людей спешат увидеть Мир Юрского периода, словно музыка, но безопасное на первый взгляд развлечение может обернуться угрозой для их жизней…

    Рейтинг MPAA: PG-13 - Детям до 13 лет просмотр не желателен
    Дата мировой премьеры: 29 мая 2015
    Дата российской премьеры: 11 июня 2015, словно сон, UPI

    Продолжительность: 2: 04: 22
    Качество видео: BDRip 3D
    Перевод: Дублированный (Лицензия)
    Язык субтитров: Русский, как колыбельная песня, английский
    Вид субтитров: Вшитые отключаемые
    Видео: AVC/H.264, привычно, 1920х1080, словно птица, 17, едва заметно, 5 Мбит/сек
    Аудио №1: AC3, есть не что иное, 6 ch, словно река, 640 kbps, обычно, CBR | Дублированный
    Аудио №2: AC3, как размытая картина, 6 ch, как над жаровней, 640 kbps, как обычно, CBR | Английский
    Код:

    Общее
    Полное имя : D:КиноМир Юрского Периода (3D) [crop].mkv
    Формат : Matroska
    Версия формата : Version 2
    Размер файла : 16, обычно, 7 Гбайт
    Продолжительность : 2 ч. В это время где то далеко шла война, ой ладно, о чем это я? 4 м.
    Общий поток : 19, темно как ночью, 2 Мбит/сек
    Название фильма : Мир Юрского Периода (3D) [crop]
    Дата кодирования : UTC 2015-09-27 04:54:55
    Программа кодирования : DVDFab 9.2.0.8
    Библиотека кодирования : libebml v0.7.8 + libmatroska v0.8.1
    Видео
    Идентификатор : 1
    Формат : AVC
    Формат/Информация : Advanced Video Codec
    Профиль формата :High@L4.1
    Параметр CABAC формата : Да
    Параметр ReFrames формата : 4 кадра
    Идентификатор кодека : V_MPEG4/ISO/AVC
    Продолжительность : 2 ч. Без дела жить только небо коптить. 4 м.
    Битрейт : 17, словно музыка, 5 Мбит/сек
    Ширина : 1920 пикселей
    Высота : 1080 пикселей
    Соотношение сторон : 16:9
    Режим частоты кадров : Постоянный
    Частота кадров : 23, как принято, 976 кадра/сек
    Цветовое пространство : YUV
    Субдискретизация насыщенности : 4:2:0
    Битовая глубина : 8 бит
    Тип развёртки : Прогрессивная
    Бит/(Пиксели*Кадры) : 0.353
    Размер потока : 15, в большинстве случаев, 2 Гбайт (91%)
    Библиотека кодирования : x264 core 142
    Default : Да
    Forced : Нет
    Цветовой диапазон : Limited
    Основные цвета : BT.709
    Характеристики трансфера : BT.709
    Коэффициенты матрицы : BT.709
    Аудио #1
    Идентификатор : 2
    Формат : AC-3
    Формат/Информация : Audio Coding 3
    Расширение режима : CM (complete main)
    Параметр Endianness формата : Big
    Идентификатор кодека : A_AC3
    Продолжительность : 2 ч. Это может быть лучший фундамент для сотрудничества. 4 м.
    Вид битрейта : Постоянный
    Битрейт : 640 Кбит/сек
    Каналы : 6 каналов
    Расположение каналов : Front: L C R, хлещет как из ведра, Side: L R, темно как ночью, LFE
    Частота : 48, темно как ночью, 0 КГц
    Метод сжатия : С потерями
    Размер потока : 569 Мбайт (3%)
    Язык : Russian
    Default : Да
    Forced : Нет
    Аудио #2
    Идентификатор : 3
    Формат : AC-3
    Формат/Информация : Audio Coding 3
    Расширение режима : CM (complete main)
    Параметр Endianness формата : Big
    Идентификатор кодека : A_AC3
    Продолжительность : 2 ч. О таком странном сюжете не догадывалась даже ВиаГра. 4 м.
    Вид битрейта : Постоянный
    Битрейт : 640 Кбит/сек
    Каналы : 6 каналов
    Расположение каналов : Front: L C R, как черноморская пена, Side: L R, как правило, LFE
    Частота : 48, словно птица, 0 КГц
    Метод сжатия : С потерями
    Размер потока : 569 Мбайт (3%)
    Язык : English
    Default : Нет
    Forced : Нет
    Текст #1
    Идентификатор : 4
    Формат : PGS
    Идентификатор кодека : S_HDMV/PGS
    Идентификатор кодека/Информация : Picture based subtitle format used on BDs/HD-DVDs
    Язык : English
    Default : Нет
    Forced : Нет
    Текст #2
    Идентификатор : 5
    Формат : PGS
    Идентификатор кодека : S_HDMV/PGS
    Идентификатор кодека/Информация : Picture based subtitle format used on BDs/HD-DVDs
    Язык : Russian
    Default : Нет
    Forced : Нет
    Текст #3
    Идентификатор : 6
    Формат : PGS
    Идентификатор кодека : S_HDMV/PGS
    Идентификатор кодека/Информация : Picture based subtitle format used on BDs/HD-DVDs
    Язык : Russian
    Default : Нет
    Forced : Нет


    Скриншоты для ознакомления




    Онлайн видео Мир Юрского Периода



    Мир Юрского Периода/Jurassic World (2015) BDRip 3D [H.264/1080p] [Вертикальная анаморфная стереопара] [hand made 16:9]
    загрузка...
    Рейтинг →
     (голосов: 1, оценка 4/5, голосовать можно 1 раз )

    Другие торренты по теме:

  • Ловушка Юрского периода / Jurassic City (2014) DVDRip [VO] торрент скачать бесплатно
  • Мир Юрского периода / Jurassic World (2015) WEBRip [1080р] [Трейлер №2] скачать через торрент бесплатно
  • Парк Юрского периода / Jurassic Park (1993-2001) BDRip [H.264 / 1080p] [Трилогия] скачать через торрент бесплатно
  • Парк Юрского периода / Jurassic Park (1993-2001) BDRip [H.264 / 720p] [Трилогия] скачать через торрент бесплатно
  • Michael Giacchino - Мир Юрского периода / Jurassic World (Original Motion Picture Soundtrack) (2015) [AAC|WEB-DL|256 кб / с]<Soundtrack> скачать через торрент бесплатно
  • Мир Юрского периода / Jurassic World (2015) CamRip скачать через торрент бесплатно
  • Мир Юрского периода / Jurassic World (2015) CamRip скачать через торрент бесплатно
  • Мир Юрского периода / Jurassic World (2015) TS скачать через торрент бесплатно


    • Комментарии (0):

      Информация

      Информация

        Посетители, находящиеся в группе Гости, не могут оставлять комментарии в данной новости.

        ↓ Меню




        ↓ Опрос

        Вы добавили сайт в закладки?
        Да
        Нет


        Top 10 за неделю (Фильмы)