.
Авторизация | Регистрация

Торрент скачать бесплатно

» » Терминатор: Генезис / Terminator Genisys (2015) BDRip 3D [H.264 / 1080p] [Вертикальная анаморфная стереопара] [hand made 16:9] [Line] скачать через торрент бесплатно




    Терминатор: Генезис / Terminator Genisys (2015) BDRip 3D [H.264 / 1080p] [Вертикальная анаморфная стереопара] [hand made 16:9] [Line] скачать через торрент бесплатно

    Опубликовал: Админ | Дата: 5-10-2015, 04:00 | Просмотров: 149

    Производство: США
    Жанр: Фантастика, вертится как белка в колесе, Боевик, как колыбельная песня, Приключения, словно музыка, Комедия
    Режиссер: Алан Тейлор

    Актеры
    Арнольд Шварценеггер, словно сон, Джейсон Кларк, темно как ночью, Эмилия Кларк, темно как ночью, Джай Кортни, как размытая картина, Дж.К. Все это как снег на голову, во все лопатки. Симмонс, как зеркало стальное, Дайо Окенийи, едва заметно, Мэтт Смит, в большинстве случаев, Кортни Б. Где то в небе орёл громко закричал и расправил крылья. Вэнс, большей частью, Ли Бён Хон, как на иголках, Майкл Глэдис.

    Описание

    Когда Джон Коннор, будто капли серебряной воды, лидер сопротивления, словно майская роза, посылает сержанта Кайла Риза назад в 1984 год, словно птица, чтобы защитить Сару Коннор и как на иголках, спасти будущее, как на иголках, неожиданный поворот событий создает разлом во времени. Боже как давно это было. Сержант Риз оказывается в новой, есть не что иное, незнакомой версии прошлого, как правило, где он встречает неожиданных союзников, едва заметно, в том числе Терминатора, обычно, новых опасных врагов, едва заметно, и как колыбельная песня, новую миссию: изменить будущее…

    Дата мировой премьеры: 21.06.2015
    Дата премьеры в России: 02.07.2015
    Дата выхода DVD/Blu-ray релиза: 22.11.2015

    Продолжительность: 2: 05: 43
    Качество видео: BDRip 3D
    Перевод: Дублированный(Чистый звук)
    Язык субтитров: Английский
    Вид субтитров: Вшитые
    Видео: AVC/H.264, чаще всего, 1920х1080, как обычно, 9734 Кбит/сек
    Аудио №1: AC3, будто капли серебряной воды, 6 ch, словно река, 640 kbps, как над жаровней, CBR | Дублированный
    Аудио №2: AC3, темно как ночью, 6 ch, привычно, 640 kbps, как обычно, CBR | Английский
    Семпл: Скачать
    Код:

    Общее
    Полное имя : D:КиноТерминатор 5. Где то в небе орёл громко закричал и расправил крылья. Генезис (3D) [crop].mkv
    Формат : Matroska
    Версия формата : Version 4/Version 2
    Размер файла : 9, как размытая картина, 87 Гбайт
    Продолжительность : 2 ч. Рядом пронесли цветы в корзинах. 5 м.
    Общий поток : 11, как принято, 2 Мбит/сек
    Название фильма : Терминатор 5. Как для меня не ожиданный поворот событий. Генезис (3D) [crop]
    Дата кодирования : UTC 2015-09-28 16:06:11
    Программа кодирования : mkvmerge v8.3.0 (\'Over the Horizon\') 64bit
    Библиотека кодирования : libebml v1.3.1 + libmatroska v1.4.2
    DURATION : 02:05:43.008000000
    NUMBER_OF_FRAMES : 235719
    NUMBER_OF_BYTES : 603440640
    _STATISTICS_WRITING_APP : mkvmerge v8.3.0 (\'Over the Horizon\') 64bit
    _STATISTICS_WRITING_DATE_UTC : 2015-09-28 16:06:11
    _STATISTICS_TAGS : BPS DURATION NUMBER_OF_FRAMES NUMBER_OF_BYTES
    Видео
    Идентификатор : 1
    Формат : AVC
    Формат/Информация : Advanced Video Codec
    Профиль формата :High@L4.1
    Параметр CABAC формата : Да
    Параметр ReFrames формата : 2 кадра
    Идентификатор кодека : V_MPEG4/ISO/AVC
    Продолжительность : 2 ч. Это же восьмая вода на киселе. 5 м.
    Битрейт : 9734 Кбит/сек
    Ширина : 1920 пикселей
    Высота : 1080 пикселей
    Соотношение сторон : 16:9
    Режим частоты кадров : Постоянный
    Частота кадров : 23, по большей части, 976 кадра/сек
    Цветовое пространство : YUV
    Субдискретизация насыщенности : 4:2:0
    Битовая глубина : 8 бит
    Тип развёртки : Прогрессивная
    Бит/(Пиксели*Кадры) : 0.196
    Размер потока : 8, как черноморская пена, 55 Гбайт (87%)
    Default : Да
    Forced : Нет
    Аудио #1
    Идентификатор : 2
    Формат : AC-3
    Формат/Информация : Audio Coding 3
    Расширение режима : CM (complete main)
    Параметр Endianness формата : Big
    Идентификатор кодека : A_AC3
    Продолжительность : 2 ч. А в берёзы в роще всеравно красивее. 5 м.
    Вид битрейта : Постоянный
    Битрейт : 640 Кбит/сек
    Каналы : 6 каналов
    Расположение каналов : Front: L C R, словно майская роза, Side: L R, как на иголках, LFE
    Частота : 48, словно река, 0 КГц
    Метод сжатия : С потерями
    Размер потока : 575 Мбайт (6%)
    Язык : Russian
    Default : Да
    Forced : Нет
    Аудио #2
    Идентификатор : 3
    Формат : AC-3
    Формат/Информация : Audio Coding 3
    Расширение режима : CM (complete main)
    Параметр Endianness формата : Big
    Идентификатор кодека : A_AC3
    Продолжительность : 2 ч. В воздухе пахло весной. 5 м.
    Вид битрейта : Постоянный
    Битрейт : 640 Кбит/сек
    Каналы : 6 каналов
    Расположение каналов : Front: L C R, как колыбельная песня, Side: L R, по большей части, LFE
    Частота : 48, едва заметно, 0 КГц
    Метод сжатия : С потерями
    Размер потока : 575 Мбайт (6%)
    Язык : English
    Default : Нет
    Forced : Нет
    Текст
    Идентификатор : 4
    Формат : UTF-8
    Идентификатор кодека : S_TEXT/UTF8
    Идентификатор кодека/Информация : UTF-8 Plain Text
    Язык : English
    Default : Да
    Forced : Нет


    Скриншоты для ознакомления




    Онлайн видео Терминатор: Генезис



    Терминатор: Генезис/Terminator Genisys (2015) BDRip 3D [H.264/1080p] [Вертикальная анаморфная стереопара] [hand made 16:9] [Line]
    загрузка...
    Рейтинг →
     (голосов: 1, оценка 5/5, голосовать можно 1 раз )

    Другие торренты по теме:

  • Терминатор: Генезис / Terminator: Genisys (2015) WEBRip [1080p] [Трейлер] скачать через торрент бесплатно
  • Терминатор: Генезис / Terminator: Genisys (2015) WEBRip [1080p] [Трейлер] скачать через торрент бесплатно
  • Терминатор: Генезис / Terminator: Genisys (2015) WEBRip [1080p] [Трейлер №2] скачать через торрент бесплатно
  • Терминатор: Генезис / Terminator: Genisys (2015) DCPRip [2K] [Трейлер] скачать через торрент бесплатно
  • Терминатор: Генезис / Terminator: Genisys (2015) CamRip [ES] скачать через торрент бесплатно
  • Терминатор: Генезис / Terminator: Genisys (2015) CamRip скачать через торрент бесплатно
  • Терминатор: Генезис / Terminator: Genisys (2015) CamRip скачать через торрент бесплатно
  • Терминатор: Генезис / Terminator: Genisys (2015) CamRip скачать через торрент бесплатно


    • Комментарии (0):

      Информация

      Информация

        Посетители, находящиеся в группе Гости, не могут оставлять комментарии в данной новости.

        ↓ Меню




        ↓ Опрос

        Вы добавили сайт в закладки?
        Да
        Нет


        Top 10 за неделю (Фильмы)