.
Авторизация | Регистрация
Хочешь лучшие торренты? Добавь свой email!
Добавить

Торрент скачать бесплатно

» » Сонная Лощина / Sleepy Hollow (2015) WEB-DLRip (сезон 3, серии 1 из 18) NewStudio (обновляемая) скачать через торрент бесплатно




    Сонная Лощина / Sleepy Hollow (2015) WEB-DLRip (сезон 3, серии 1 из 18) NewStudio (обновляемая) скачать через торрент бесплатно

    Опубликовал: Админ | Дата: 4-10-2015, 04:05 | Просмотров: 1568

    Производство: США/Sketch Films, K/O Paper Products, 20th Century Fox Television
    Жанр: фантастика, триллер
    Режиссер: Дуглас Арниокоски, Пол А. Бесплатный сыр, сказал кто то из толпы, к чему не понятно. Эдвардс, Кен Олин

    Актеры
    Том Мисон, Николь Бахари, Орландо Джонс, Катя Винтер, Линди Гринвуд, Джон Ноубл, Зэк Аппельман, Лэнс Гросс, Никки Рид, Шаннин Соссамон и др.

    Описание

    Икабод Крэйн просыпается от предсмертной агонии, переместившись во времени на 250 лет вперед. Крэйн обнаруживает мир на грани разрушения и узнает, что только он является единственной надеждой человечества.

    Продолжительность: ~00: 45: 00 серия
    Качество видео: WEB-DLRip
    Перевод: Многоголосый закадровый, профессиональный -NewStudio
    Автор перевода: Weirdie
    Видео: XviD, 720x400 (16: 9), ~1389 kb/s
    Аудио Rus: MPEG Layer 3, 48, 0 kHz, 2 ch, 128 kb/s — многоголосый закадровый
    Аудио Eng: MPEG Layer 3, 48, 0 kHz, 2 ch, 128 kb/s — оригинал
    Общее
    Полное имя : D: Сонная лощина (сезон любимого сериала 3) Sleepy Hollow (2015) WEB-DLRip - NewStudioSleepy.Hollow.s03e01.WEBDLRip.NewStudio.TV.avi
    Формат : AVI
    Формат/Информация : Audio Video Interleave
    Размер файла : 550 Мбайт
    Продолжительность : 46 м.
    Общий поток : 1659 Кбит/сек
    Программа кодирования : VirtualDubMod 1.5.10.2 (build 2540/release)
    Библиотека кодирования : VirtualDubMod build 2540/release
    Видео
    Идентификатор : 0
    Формат : MPEG-4 Visual
    Профиль формата : Advanced Simple@L5
    Параметр BVOP формата : 2
    Параметр QPel формата : Нет
    Параметр GMC формата : Без точки перехода
    Параметр матрицы формата : Default (MPEG)
    Идентификатор кодека : XVID
    Идентификатор кодека/Подсказка : XviD
    Продолжительность : 46 м.
    Битрейт : 1389 Кбит/сек
    Ширина : 720 пикселей
    Высота : 400 пикселей
    Соотношение сторон : 16: 9
    Частота кадров : 23, 976 кадра/сек
    Цветовое пространство : YUV
    Субдискретизация насыщенности : 4: 2: 0
    Битовая глубина : 8 бит
    Тип развёртки : Прогрессивная
    Метод сжатия : С потерями
    Бит/(Пиксели*Кадры) : 0.201
    Размер потока : 460 Мбайт (84%)
    Библиотека кодирования : XviD 73
    Аудио #1
    Идентификатор : 1
    Формат : MPEG Audio
    Версия формата : Version 1
    Профиль формата : Layer 3
    Идентификатор кодека : 55
    Идентификатор кодека/Подсказка : MP3
    Продолжительность : 46 м.
    Вид битрейта : Постоянный
    Битрейт : 128 Кбит/сек
    Каналы : 2 канала
    Частота : 48, 0 КГц
    Метод сжатия : С потерями
    Размер потока : 42, 4 Мбайт (8%)
    Выравнивание : Соединение по промежуткам
    Продолжительность промежутка : 42 мс. (1, 00 видеокадр)
    Время предзагрузки промежутка : 504 мс.
    Аудио #2
    Идентификатор : 2
    Формат : MPEG Audio
    Версия формата : Version 1
    Профиль формата : Layer 3
    Режим : Joint stereo
    Идентификатор кодека : 55
    Идентификатор кодека/Подсказка : MP3
    Продолжительность : 46 м.
    Вид битрейта : Постоянный
    Битрейт : 128 Кбит/сек
    Каналы : 2 канала
    Частота : 48, 0 КГц
    Метод сжатия : С потерями
    Размер потока : 42, 4 Мбайт (8%)
    Выравнивание : Соединение по промежуткам
    Продолжительность промежутка : 42 мс. (1, 00 видеокадр)
    Время предзагрузки промежутка : 504 мс.
    Библиотека кодирования : LAME3.99r
    Настройки программы : -m j -V 4 -q 2 -lowpass 17 -b 128


    Скриншоты для ознакомления




    Онлайн видео Сонная Лощина



    Сонная Лощина/Sleepy Hollow (2015) WEB-DLRip (сезон 3, серии 1 из 18) NewStudio (обновляемая)
    загрузка...
    Рейтинг →
     (голосов: 1, оценка 3/5, голосовать можно 1 раз )

    Другие торренты по теме:

  • Сонная Лощина / Sleepy Hollow (2014) WEB-DLRip (сезон 2, серии 1 из 10) LostFilm (обновляемая)
  • Сонная лощина / Sleepy Hollow (1999) BDRip [720p]
  • Сонная Лощина / Sleepy Hollow (2014) WEB-DL [H.264 / 720p-LQ] (сезон 2, серии 1-11 из 18) LostFilm (обновляемая) скачать через торрент бесплатно
  • Сонная лощина / Sleepy Hollow (1999) BDRip [H.264]скачать через торрент бесплатно
  • Сонная Лощина / Sleepy Hollow (2014) WEB-DLRip (сезон 2, серии 1-18 из 18) (NewStudio) скачать через торрент бесплатно
  • Сонная Лощина / Sleepy Hollow (2015) WEB-DLRip (сезон 3, серии 1 из 18) LostFilm (обновляемая) скачать через торрент бесплатно
  • Сонная Лощина / Sleepy Hollow (2015) WEB-DL [H.264 / 1080p-LQ] (сезон 3, серии 1-2 из 18) LostFilm (обновляемая) скачать через торрент бесплатно
  • Сонная Лощина / Sleepy Hollow (2015) WEB-DL [H.264 / 720p] (сезон 3, серии 1-15 из 18) (NewStudio) (обновляемая)


    • Комментарии (0):

      Информация

      Информация

        Посетители, находящиеся в группе Гости, не могут оставлять комментарии в данной новости.

        ↓ Меню




        ↓ Опрос

        Вы добавили сайт в закладки?
        Да
        Нет


        Top 10 за месяц (Фильмы)