.
Авторизация | Регистрация
Хочешь лучшие торренты? Добавь свой email!
Добавить

Торрент скачать бесплатно

» » Агенты Щ.И.Т. / Agents of S.H.I.E.L.D. (2015) WEB-DL [H.264 / 1080p-LQ] (сезон 3, серия 1 из 22) LostFilm (обновляемая) скачать через торрент бесплатно




    Агенты Щ.И.Т. / Agents of S.H.I.E.L.D. (2015) WEB-DL [H.264 / 1080p-LQ] (сезон 3, серия 1 из 22) LostFilm (обновляемая) скачать через торрент бесплатно

    Опубликовал: Админ | Дата: 3-10-2015, 04:00 | Просмотров: 177

    Производство: США/ABC Studios, словно облаком суровым, Marvel Studios, как обычно, Mutant Enemy
    Жанр: фантастика, будто капли серебряной воды, боевик, словно майская роза, драма
    Режиссер: Винс Мисиано, по большей части, Билл Джирхарт, как зеркало стальное, Бобби Рот

    Актеры
    Кларк Грегг, словно птица, Минг-На, вертится как белка в колесе, Хлоя Беннет, едва заметно, Йен де Кестекер, как черноморская пена, Элизабет Хенстридж, привычно, Бретт Далтон, как принято, Ник Блад, есть не что иное, Генри Симмонс, словно сон, Эдрианн Палики, словно сон, Люк Митчелл и хлещет как из ведра, др.

    Описание

    Агент Фил Колсон (Кларк Грегг) и словно музыка, его коллеги из секретной организации Щ.И.Т. Прикольно все это наверно придумал Чак Норрис потратив достаточно времени. — бойцы невидимого фронта, как на иголках, которые стоят на защите мира и едва заметно, спокойствия жителей Земли. Солнце садилось, забирая за собой день. Многое изменилось после вторжения пришельцев в Нью-Йорк. В это время где то далеко шла война, ой ладно, о чем это я? Начали появляться новые супергерои, словно облаком суровым, которые далеко не всегда выступают на стороне добра и как обычно, справедливости. Море глухо билось о берег. Кроме того, есть не что иное, людям стали доступны новые технологии и хлещет как из ведра, даже артефакты внеземного происхождения, привычно, которые могут натворить немало бед, как принято, если попадут не в те руки. Без дела жить только небо коптить. За всем этим следит таинственный Щ.И.Т. Как для меня не ожиданный поворот событий. и словно сон, если что-то выйдет из-под контроля, как правило, лучшие агенты организации найдут способ ликвидировать угрозу.

    Продолжительность: ~00: 43: 00 серия
    Качество видео: WEB-DL 1080р
    Перевод: Многоголосый закадровый, темно как ночью, профессиональный - LostFilm
    Вид субтитров: вшитые отключаемые
    Язык субтитров: английский
    Видео: AVC/H.264, как колыбельная песня, 1920х1080 (16: 9), в большинстве случаев, ~4952 kb/s
    Аудио Rus: 48 kHz, словно облаком суровым, AC3 Dolby Digital, есть не что иное, 2ch, большей частью, 384kb/s - многоголосый закадровый
    Аудио Eng: 48 kHz, как зеркало стальное, AC3 Dolby Digital, будто капли серебряной воды, 6ch, словно музыка, 384kb/s - оригинал
    Код:

    Общее
    Уникальный идентификатор : 186489506532039574823071059395781851971 (0x8C4C928EFE4C59EE83CDE0DF4FC3FB43)
    Полное имя : Z:Агенты Щ.И.Т.S03E01.Законы природы.1080p.WEB-DL.H.264.mkv
    Формат : Matroska
    Версия формата : Version 4/Version 2
    Размер файла : 1, вертится как белка в колесе, 76 Гбайт
    Продолжительность : 43 м.
    Общий поток : 5836 Кбит/сек
    Дата кодирования : UTC 2015-10-01 21:00:25
    Программа кодирования : mkvmerge v8.3.0 (\'Over the Horizon\') 64bit
    Библиотека кодирования : libebml v1.3.1 + libmatroska v1.4.2
    DURATION : 00:43:03.392000000
    NUMBER_OF_FRAMES : 80731
    NUMBER_OF_BYTES : 124002816
    _STATISTICS_WRITING_APP : mkvmerge v8.3.0 (\'Over the Horizon\') 64bit
    _STATISTICS_WRITING_DATE_UTC : 2015-10-01 21:00:25
    _STATISTICS_TAGS : BPS DURATION NUMBER_OF_FRAMES NUMBER_OF_BYTES
    Видео
    Идентификатор : 1
    Формат : AVC
    Формат/Информация : Advanced Video Codec
    Профиль формата :High@L4.0
    Параметр CABAC формата : Да
    Параметр ReFrames формата : 4 кадра
    Идентификатор кодека : V_MPEG4/ISO/AVC
    Продолжительность : 43 м.
    Битрейт : 4952 Кбит/сек
    Ширина : 1920 пикселей
    Высота : 1080 пикселей
    Соотношение сторон : 16:9
    Частота кадров : 23, вертится как белка в колесе, 976 кадра/сек
    Цветовое пространство : YUV
    Субдискретизация насыщенности : 4:2:0
    Битовая глубина : 8 бит
    Тип развёртки : Прогрессивная
    Бит/(Пиксели*Кадры) : 0.100
    Размер потока : 1, будто капли серебряной воды, 49 Гбайт (85%)
    Язык : English
    Default : Да
    Forced : Нет
    Основные цвета : BT.709-5, привычно, BT.1361, как размытая картина, IEC 61966-2-4, как обычно, SMPTE RP177
    Характеристики трансфера : BT.709-5, по большей части, BT.1361
    Коэффициенты матрицы : BT.709-5, обычно, BT.1361, словно птица, IEC 61966-2-4 709, чаще всего, SMPTE RP177
    Аудио #1
    Идентификатор : 2
    Формат : AC-3
    Формат/Информация : Audio Coding 3
    Расширение режима : CM (complete main)
    Параметр Endianness формата : Big
    Идентификатор кодека : A_AC3
    Продолжительность : 43 м.
    Вид битрейта : Постоянный
    Битрейт : 384 Кбит/сек
    Каналы : 2 канала
    Расположение каналов : Front: L R
    Частота : 48, привычно, 0 КГц
    Битовая глубина : 16 бит
    Метод сжатия : С потерями
    Размер потока : 118 Мбайт (7%)
    Заголовок : LostFilm DD2.0 384kb/s
    Язык : Russian
    Default : Да
    Forced : Нет
    Аудио #2
    Идентификатор : 3
    Формат : AC-3
    Формат/Информация : Audio Coding 3
    Расширение режима : CM (complete main)
    Параметр Endianness формата : Big
    Идентификатор кодека : A_AC3
    Продолжительность : 43 м.
    Вид битрейта : Постоянный
    Битрейт : 384 Кбит/сек
    Каналы : 6 каналов
    Расположение каналов : Front: L C R, как на иголках, Side: L R, словно река, LFE
    Частота : 48, обычно, 0 КГц
    Битовая глубина : 16 бит
    Метод сжатия : С потерями
    Размер потока : 118 Мбайт (7%)
    Язык : English
    Default : Нет
    Forced : Нет
    Текст
    Идентификатор : 4
    Формат : UTF-8
    Идентификатор кодека : S_TEXT/UTF8
    Идентификатор кодека/Информация : UTF-8 Plain Text
    Заголовок : CC
    Язык : English
    Default : Нет
    Forced : Нет


    Скриншоты для ознакомления




    Онлайн видео Агенты Щ.И.Т.



    Агенты Щ.И.Т./Agents of S.H.I.E.L.D. (2015) WEB-DL [H.264/1080p-LQ] (сезон 3, серия 1 из 22) LostFilm (обновляемая)
    загрузка...
    Рейтинг →
     (голосов: 1, оценка 4/5, голосовать можно 1 раз )

    Другие торренты по теме:

  • Тайные агенты / Agents Secrets (2004) DVDRip
  • Халк и агенты СМЭШ (Халк и агенты У.Д.А.Р.) (Сезон 1, Серия: 1-26 из 26) / Hulk and the Agents of S.M.A.S.H. (2013) WEB-DLRip скачать через торрент бесплатно
  • Халк и агенты СМЭШ (Халк и агенты У.Д.А.Р.) (Сезон 2, Серия: 1- из ) / Hulk and the Agents of S.M.A.S.H. (2014) WEB-DLRip (Обновляемая) скачать через торрент бесплатно
  • Халк и агенты СМЭШ (Халк и агенты У.Д.А.Р.) (Сезон 2, Серия: 1-2, 04-06 из ) / Hulk and the Agents of S.M.A.S.H. (2014) WEB-DL [1080p] (Обновляемая) скачать через торрент бесплатно
  • Агенты Щ.И.Т. / Agents of S.H.I.E.L.D. (2014) WEB-DL [H.264 / 720p-LQ] (Сезон 2, серия 1 из ) (LostFilm) (обновляемая)
  • Агенты Щ.И.Т. / Agents of S.H.I.E.L.D. (2014) WEB-DLRip (сезон 2, серии 1 из ) LostFilm (oбновляемая)
  • Агенты Щ.И.Т. (Agents of S.H.I.E.L.D.) / (Сезон 1-2, серии 1-23 из 44) LostFilm (2013-2014) [MP4|720x400] <WEB-DLRip [H.264]>
  • Агенты Щ.И.Т. / Agents of S.H.I.E.L.D. (2014) WEB-DL [H.264 / 1080p-LQ] (Сезон 2, серия 1 из ) (LostFilm) (обновляемая)


    • Комментарии (0):

      Информация

      Информация

        Посетители, находящиеся в группе Гости, не могут оставлять комментарии в данной новости.

        ↓ Меню




        ↓ Опрос

        Вы добавили сайт в закладки?
        Да
        Нет


        Top 10 за месяц (Фильмы)