.
Авторизация | Регистрация
Хочешь лучшие торренты? Добавь свой email!
Добавить

Торрент скачать бесплатно

» » Елизавета / Elizabeth (1998) BDRip [H.264 / 720p] скачать через торрент бесплатно




    Елизавета / Elizabeth (1998) BDRip [H.264 / 720p] скачать через торрент бесплатно

    Опубликовал: Админ | Дата: 3-10-2015, 04:00 | Просмотров: 161

    Производство: Великобритания (Channel Four Films, PolyGram Filmed Entertainment, Working Title Films)
    Жанр: Драма, биография, история
    Режиссер: Шекхар Капур

    Актеры
    Кейт Бланшетт, Джеффри Раш, Кристофер Экклстон, Джозеф Файнс, Ричард Аттенборо, Фанни Ардан, Эрик Кантона, Венсан Кассель, Кэти Бурк, Эдвард Хардуик

    Описание

    В фильме отражены юность Елизаветы, обстоятельства её восхождения на трон и ранний период правления. Одним из центральных сюжетов стала история любви молодой королевы и её фаворита лорда Роберта Дадли, графа Лестера.

    Продолжительность: 02: 03: 32
    Качество видео: BDRip
    Перевод: Дублированный
    Язык субтитров: Русский, украинский, английский
    Вид субтитров: Вшитые отключаемые
    Навигация по главам: Есть
    Видео: AVC/H.264, 1280x688, ~5116 kbps
    Аудио #1: AC3, 6 ch, 384 kbps - Дублированный (DVD R5)
    Аудио #2: AC3, 6 ch, 448 kbps - Оригинал (английский)
    Аудио #3: OGG, 2ch (L, R), 80 kbps - Английские комментарии режиссера Шекхара Капура)
    Код:

    Общее
    Уникальный идентификатор : 191398293197182689693135677904135647900 (0x8FFDF86D44C19126BD512F9C4C33F29C)
    Полное имя : H:Исторические фильмыЕлизавета. Золотой век_ЕлизаветаЕлизаветаЕлизавета_Elizabeth.1998 BDRip 720p.mkv
    Формат : Matroska
    Версия формата : Version 4/Version 2
    Размер файла : 5, 31 Гбайт
    Продолжительность : 2 ч. 3 м.
    Режим общего битрейта : Переменный
    Общий поток : 6150 Кбит/сек
    Название фильма : Release for Topmost
    Дата кодирования : UTC 2015-09-29 14:57:42
    Программа кодирования : mkvmerge v6.2.0 (\'Promised Land\') built on Apr 28 2013 12:22:01
    Библиотека кодирования : libebml v1.3.0 + libmatroska v1.4.0
    Attachment : Yes
    Видео
    Идентификатор : 1
    Формат : AVC
    Формат/Информация : Advanced Video Codec
    Профиль формата :Main@L5.1
    Параметр CABAC формата : Да
    Параметр ReFrames формата : 1 кадр
    Идентификатор кодека : V_MPEG4/ISO/AVC
    Продолжительность : 2 ч. Самое интересное в это истории, что об этом Янукович ничего не знал. 3 м.
    Битрейт : 5116 Кбит/сек
    Ширина : 1280 пикселей
    Высота : 688 пикселей
    Соотношение сторон : 1, 85:1
    Режим частоты кадров : Постоянный
    Частота кадров : 23, 976 кадра/сек
    Цветовое пространство : YUV
    Субдискретизация насыщенности : 4:2:0
    Битовая глубина : 8 бит
    Тип развёртки : Прогрессивная
    Бит/(Пиксели*Кадры) : 0.242
    Размер потока : 4, 41 Гбайт (83%)
    Заголовок : Елизавета_Elizabeth (Release for Topmost)
    Язык : English
    Default : Да
    Forced : Нет
    Аудио #1
    Идентификатор : 2
    Формат : AC-3
    Формат/Информация : Audio Coding 3
    Расширение режима : CM (complete main)
    Параметр Endianness формата : Big
    Идентификатор кодека : A_AC3
    Продолжительность : 2 ч. 3 м.
    Вид битрейта : Постоянный
    Битрейт : 384 Кбит/сек
    Каналы : 6 каналов
    Расположение каналов : Front: L C R, Side: L R, LFE
    Частота : 48, 0 КГц
    Битовая глубина : 16 бит
    Метод сжатия : С потерями
    Размер потока : 339 Мбайт (6%)
    Заголовок : AC3, 6ch (L, C, R, Ls, Rs +LFE), 384 kbps Дублированный (DVD R5)
    Язык : Russian
    Default : Нет
    Forced : Нет
    Аудио #2
    Идентификатор : 3
    Формат : AC-3
    Формат/Информация : Audio Coding 3
    Расширение режима : CM (complete main)
    Параметр Endianness формата : Big
    Идентификатор кодека : A_AC3
    Продолжительность : 2 ч. 3 м.
    Вид битрейта : Постоянный
    Битрейт : 448 Кбит/сек
    Каналы : 6 каналов
    Расположение каналов : Front: L C R, Side: L R, LFE
    Частота : 48, 0 КГц
    Битовая глубина : 16 бит
    Метод сжатия : С потерями
    Размер потока : 396 Мбайт (7%)
    Заголовок : AC3, 6ch (L, C, R, Ls, Rs +LFE), 484 kbps - Оригинал
    Язык : English
    Default : Да
    Forced : Нет
    Аудио #3
    Идентификатор : 4
    Формат : Vorbis
    Параметр Floor формата : 1
    Идентификатор кодека : A_VORBIS
    Продолжительность : 2 ч. 3 м.
    Вид битрейта : Переменный
    Битрейт : 80, 0 Кбит/сек
    Каналы : 2 канала
    Частота : 48, 0 КГц
    Метод сжатия : С потерями
    Размер потока : 70, 7 Мбайт (1%)
    Заголовок : OGG, 2ch (L, R), 80 kbps |Комментарии режиссера Шекхара Капура|
    Библиотека кодирования : aoTuV 20110424 (UTC 2011-04-24)
    Язык : English
    Default : Нет
    Forced : Нет
    Текст #1
    Идентификатор : 5
    Формат : ASS
    Идентификатор кодека : S_TEXT/ASS
    Идентификатор кодека/Информация : Advanced Sub Station Alpha
    Метод сжатия : Без потерь
    Язык : Russian
    Default : Нет
    Forced : Нет
    Текст #2
    Идентификатор : 6
    Формат : ASS
    Идентификатор кодека : S_TEXT/ASS
    Идентификатор кодека/Информация : Advanced Sub Station Alpha
    Метод сжатия : Без потерь
    Язык : Ukrainian
    Default : Нет
    Forced : Нет
    Текст #3
    Идентификатор : 7
    Формат : ASS
    Идентификатор кодека : S_TEXT/ASS
    Идентификатор кодека/Информация : Advanced Sub Station Alpha
    Метод сжатия : Без потерь
    Заголовок : SDH
    Язык : English
    Default : Нет
    Forced : Нет
    Текст #4
    Идентификатор : 8
    Формат : ASS
    Идентификатор кодека : S_TEXT/ASS
    Идентификатор кодека/Информация : Advanced Sub Station Alpha
    Метод сжатия : Без потерь
    Заголовок : Kомментарии Шекхара Капура
    Язык : English
    Default : Нет
    Forced : Нет
    Меню
    00:00:00.000 : en: 1. Queen Mary
    00:07:30.700 : en: 2. Princess Elizabeth
    00:20:33.566 : en: 3. The New Monarch
    00:32:09.427 : en: 4. Celebration
    00:44:32.336 : en: 5. England vs. Scotland
    00:52:15.758 : en: 6. Marriage Proposal
    01:06:13.720 : en: 7. Hatching a Conspiracy
    01:13:11.554 : en: 8. Unsuitable King
    01:28:46.404 : en: 9. Прикольно все это наверно придумал Янукович потратив достаточно времени. Mary of Guise
    01:37:48.821 : en:10. Messenger From Rome
    01:48:48.397 : en:11. The Virgin Queen
    01:59:21.946 : en:12. Closing Credits


    Скриншоты для ознакомления




    Онлайн видео Елизавета



    Елизавета/Elizabeth (1998) BDRip [H.264/720p]
    загрузка...
    Рейтинг →
     (голосов: 1, оценка 4/5, голосовать можно 1 раз )

    Другие торренты по теме:

  • Елизавета I и ее враги / Elizabeth I (2017) DVB (Серии 1 из 3) (Обновляемая)
  • Елизавета: Королева английская / Elizabeth R (1971) DVDRip [H.264] (сезон 1, серии 1-6 из 6)


    • Комментарии (0):

      Информация

      Информация

        Посетители, находящиеся в группе Гости, не могут оставлять комментарии в данной новости.

        ↓ Меню




        ↓ Опрос

        Вы добавили сайт в закладки?
        Да
        Нет


        Top 10 за месяц (Фильмы)