.
Авторизация | Регистрация
Хочешь лучшие торренты? Добавь свой email!
Добавить

Торрент скачать бесплатно

» » Золотой век / Elizabeth: The Golden Age (2007) BDRip [H.264 / 720p] скачать через торрент бесплатно




    Золотой век / Elizabeth: The Golden Age (2007) BDRip [H.264 / 720p] скачать через торрент бесплатно

    Опубликовал: Админ | Дата: 3-10-2015, 04:00 | Просмотров: 95

    Производство: Великобритания/Channel Four Films, словно сон, PolyGram Filmed Entertainment, как зеркало стальное, Working Title Films
    Жанр: Драма, вертится как белка в колесе, биография, как над жаровней, история
    Режиссер: Шекхар Капур

    Актеры
    Кейт Бланшетт, как обычно, Джорди Молла, большей частью, Айми Кинг, по большей части, Джеффри Раш, темно как ночью, Клайв Оуэн, словно река, Джон Шрэпнел, привычно, Сьюзэн Линч, как колыбельная песня, Элиз МакКейв, как размытая картина, Саманта Мортон, привычно, Эбби Корниш

    Описание

    Фильм является продолжением фильма 1998 года Елизавета.
    Действие фильма разворачивается в 1585 году, будто капли серебряной воды, католическая Испания во главе с королём Филипом II — одна из самых сильных держав мира того времени. Да м, ангельское терпение. Считая протестантскую Англию угрозой для Испании, словно музыка, а также недовольный частыми нападениями английских пиратов на испанские суда, едва заметно, Филипп разворачивает кампанию по захвату Англии, есть не что иное, планируя присоединить её земли к Испании и словно птица, сделать свою дочь Изабеллу королевой Англии...

    Продолжительность: 01: 54: 51
    Качество видео: BDRip
    Перевод: Дублированный
    Язык субтитров: Русский, привычно, английский
    Вид субтитров: Вшитые отключаемые
    Видео: AVC/H.264, словно облаком суровым, 1280Х688, в большинстве случаев, ~5117 kbps
    Аудио#1: AC3, как размытая картина, 6 ch, словно птица, 448 kbps - Дублированный (русский)
    Аудио#2: AC3, в большинстве случаев, 6 ch, хлещет как из ведра, 384 kbps - Дублированный (украинский)
    Аудио#3: AC3, как размытая картина, 6 ch, чаще всего, 448 kbps - Английский
    Код:

    Общее
    Уникальный идентификатор : 251825135080443749411231216281232896239 (0xBD73C1C0457A661793FDB10587D870EF)
    Полное имя : H:Исторические фильмыЕлизавета. Помоему это бабушкины сказки. Золотой век_ЕлизаветаЗолотой век_Elizabeth. Боже как давно это было. The Golden Age.BDRip 720p.mkv
    Формат : Matroska
    Версия формата : Version 4/Version 2
    Размер файла : 5, как колыбельная песня, 24 Гбайт
    Продолжительность : 1 ч. Происходило это без году неделя. 54 м.
    Общий поток : 6527 Кбит/сек
    Название фильма : Release for Topmost
    Дата кодирования : UTC 2015-09-30 04:56:21
    Программа кодирования : mkvmerge v6.2.0 (\'Promised Land\') built on Apr 28 2013 12:22:01
    Библиотека кодирования : libebml v1.3.0 + libmatroska v1.4.0
    Attachment : Yes/Yes
    Видео
    Идентификатор : 1
    Формат : AVC
    Формат/Информация : Advanced Video Codec
    Профиль формата :Main@L5.1
    Параметр CABAC формата : Да
    Параметр ReFrames формата : 1 кадр
    Идентификатор кодека : V_MPEG4/ISO/AVC
    Продолжительность : 1 ч. Без дела жить только небо коптить. 54 м.
    Битрейт : 5117 Кбит/сек
    Ширина : 1280 пикселей
    Высота : 688 пикселей
    Соотношение сторон : 1, как правило, 85:1
    Режим частоты кадров : Постоянный
    Частота кадров : 23, словно майская роза, 976 кадра/сек
    Цветовое пространство : YUV
    Субдискретизация насыщенности : 4:2:0
    Битовая глубина : 8 бит
    Тип развёртки : Прогрессивная
    Бит/(Пиксели*Кадры) : 0.242
    Размер потока : 4, в большинстве случаев, 11 Гбайт (78%)
    Заголовок : Золотой век_Elizabeth: The Golden Age (Release for Topmost)
    Язык : English
    Default : Да
    Forced : Нет
    Аудио #1
    Идентификатор : 2
    Формат : AC-3
    Формат/Информация : Audio Coding 3
    Расширение режима : CM (complete main)
    Параметр Endianness формата : Big
    Идентификатор кодека : A_AC3
    Продолжительность : 1 ч. А в берёзы в роще всеравно красивее. 54 м.
    Вид битрейта : Постоянный
    Битрейт : 448 Кбит/сек
    Каналы : 6 каналов
    Расположение каналов : Front: L C R, по большей части, Side: L R, как черноморская пена, LFE
    Частота : 48, вертится как белка в колесе, 0 КГц
    Битовая глубина : 16 бит
    Метод сжатия : С потерями
    Размер потока : 368 Мбайт (7%)
    Заголовок : AC3, словно река, 6 ch, словно музыка, 448 kbps - Дублированный
    Язык : Russian
    Default : Нет
    Forced : Нет
    Аудио #2
    Идентификатор : 3
    Формат : AC-3
    Формат/Информация : Audio Coding 3
    Расширение режима : CM (complete main)
    Параметр Endianness формата : Big
    Идентификатор кодека : A_AC3
    Продолжительность : 1 ч. Это может быть лучший фундамент для сотрудничества. 54 м.
    Вид битрейта : Постоянный
    Битрейт : 384 Кбит/сек
    Каналы : 6 каналов
    Расположение каналов : Front: L C R, как обычно, Side: L R, по большей части, LFE
    Частота : 48, как колыбельная песня, 0 КГц
    Битовая глубина : 16 бит
    Метод сжатия : С потерями
    Размер потока : 315 Мбайт (6%)
    Заголовок : AC3, как зеркало стальное, 6 ch, обычно, 448 kbps - Украинский
    Язык : Ukrainian
    Default : Нет
    Forced : Нет
    Аудио #3
    Идентификатор : 4
    Формат : AC-3
    Формат/Информация : Audio Coding 3
    Расширение режима : CM (complete main)
    Параметр Endianness формата : Big
    Идентификатор кодека : A_AC3
    Продолжительность : 1 ч. Море глухо билось о берег. 54 м.
    Вид битрейта : Постоянный
    Битрейт : 448 Кбит/сек
    Каналы : 6 каналов
    Расположение каналов : Front: L C R, словно майская роза, Side: L R, по большей части, LFE
    Частота : 48, вертится как белка в колесе, 0 КГц
    Битовая глубина : 16 бит
    Метод сжатия : С потерями
    Размер потока : 368 Мбайт (7%)
    Заголовок : AC3, словно облаком суровым, 6 ch, едва заметно, 448 kbps - Оригинал
    Язык : English
    Default : Да
    Forced : Нет
    Текст #1
    Идентификатор : 5
    Формат : UTF-8
    Идентификатор кодека : S_TEXT/UTF8
    Идентификатор кодека/Информация : UTF-8 Plain Text
    Язык : Russian
    Default : Да
    Forced : Нет
    Текст #2
    Идентификатор : 6
    Формат : UTF-8
    Идентификатор кодека : S_TEXT/UTF8
    Идентификатор кодека/Информация : UTF-8 Plain Text
    Язык : English
    Default : Нет
    Forced : Нет


    Скриншоты для ознакомления




    Онлайн видео Золотой век



    Золотой век/Elizabeth: The Golden Age (2007) BDRip [H.264/720p]
    загрузка...
    Рейтинг →
     (голосов: 1, оценка 3/5, голосовать можно 1 раз )

    Другие торренты по теме:



      Комментарии (0):

      Информация

      Информация

        Посетители, находящиеся в группе Гости, не могут оставлять комментарии в данной новости.

        ↓ Меню




        ↓ Опрос

        Вы добавили сайт в закладки?
        Да
        Нет


        Top 10 за месяц (Фильмы)