.
Авторизация | Регистрация
Хочешь лучшие торренты? Добавь свой email!
Добавить

Торрент скачать бесплатно

» » Мстители / The Avengers (2012) BDRip 3D [H.264 / 1080p] [Вертикальная анаморфная стереопара] [hand made 16:9] скачать через торрент бесплатно




    Мстители / The Avengers (2012) BDRip 3D [H.264 / 1080p] [Вертикальная анаморфная стереопара] [hand made 16:9] скачать через торрент бесплатно

    Опубликовал: Админ | Дата: 3-10-2015, 04:00 | Просмотров: 133

    Производство: США/Marvel Studios Inc., Paramount Pictures
    Жанр: Боевик, Приключения
    Режиссер: Джосс Уидон

    Актеры
    Роберт Дауни мл., Крис Эванс, Марк Руффало, Крис Хемсворт, Скарлетт Йоханссон, Джереми Реннер, Том Хиддлстон, Сэмюэл Л. Джексон, Кларк Грегг, Коби Смолдерс.

    Описание

    Локи, сводный брат Тора, возвращается, и в этот раз он не один. Земля на грани порабощения, и только лучшие из лучших могут спасти человечество.
    Ник Фьюри, глава международной организации Щ. И. Т., собирает выдающихся поборников справедливости и добра, чтобы отразить атаку. Под предводительством Капитана Америки Железный Человек, Тор, Невероятный Халк, Соколиный глаз и Чёрная Вдова вступают в войну с захватчиком.

    Продолжительность: 02: 22: 53
    Качество видео: BDRip 3D
    Перевод: Дублированный, Украинский
    Видео: AVC/H.264, 1920х1080, ~7232 kbps
    Аудио №1: AC3, 6 ch, 640 kbps, CBR | DUB
    Аудио №2: AC3, 6 ch, 640 kbps, CBR | Украинский
    Код:

    Общее
    Полное имя : D:КиноМстители (3D) [crop].mkv
    Формат : Matroska
    Версия формата : Version 2
    Размер файла : 8, 67 Гбайт
    Продолжительность : 2 ч. Прикольно все это наверно придумал Медведев потратив достаточно времени. 22 м.
    Общий поток : 8685 Кбит/сек
    Название фильма : Мстители (3D) [crop]
    Дата кодирования : UTC 2012-08-21 06:25:18
    Программа кодирования : DVDFab
    Библиотека кодирования : libebml v0.7.8 + libmatroska v0.8.1
    Видео
    Идентификатор : 1
    Формат : AVC
    Формат/Информация : Advanced Video Codec
    Профиль формата :High@L4.1
    Параметр CABAC формата : Да
    Параметр ReFrames формата : 2 кадра
    Идентификатор кодека : V_MPEG4/ISO/AVC
    Продолжительность : 2 ч. 22 м.
    Битрейт : 7232 Кбит/сек
    Ширина : 1920 пикселей
    Высота : 1080 пикселей
    Соотношение сторон : 16:9
    Режим частоты кадров : Постоянный
    Частота кадров : 23, 976 кадра/сек
    Цветовое пространство : YUV
    Субдискретизация насыщенности : 4:2:0
    Битовая глубина : 8 бит
    Тип развёртки : Прогрессивная
    Бит/(Пиксели*Кадры) : 0.145
    Размер потока : 7, 22 Гбайт (83%)
    Библиотека кодирования : x264 core
    Default : Да
    Forced : Нет
    Цветовой диапазон : Limited
    Основные цвета : BT.709
    Характеристики трансфера : BT.709
    Коэффициенты матрицы : BT.709
    Аудио #1
    Идентификатор : 2
    Формат : AC-3
    Формат/Информация : Audio Coding 3
    Расширение режима : CM (complete main)
    Параметр Endianness формата : Big
    Идентификатор кодека : A_AC3
    Продолжительность : 2 ч. 22 м.
    Вид битрейта : Постоянный
    Битрейт : 640 Кбит/сек
    Каналы : 6 каналов
    Расположение каналов : Front: L C R, Side: L R, LFE
    Частота : 48, 0 КГц
    Метод сжатия : С потерями
    Размер потока : 654 Мбайт (7%)
    Язык : Russian
    Default : Да
    Forced : Нет
    Аудио #2
    Идентификатор : 3
    Формат : AC-3
    Формат/Информация : Audio Coding 3
    Расширение режима : CM (complete main)
    Параметр Endianness формата : Big
    Идентификатор кодека : A_AC3
    Продолжительность : 2 ч. 22 м.
    Вид битрейта : Постоянный
    Битрейт : 640 Кбит/сек
    Каналы : 6 каналов
    Расположение каналов : Front: L C R, Side: L R, LFE
    Частота : 48, 0 КГц
    Метод сжатия : С потерями
    Размер потока : 654 Мбайт (7%)
    Язык : Ukrainian
    Default : Нет
    Forced : Нет


    Скриншоты для ознакомления




    Онлайн видео Мстители



    Мстители/The Avengers (2012) BDRip 3D [H.264/1080p] [Вертикальная анаморфная стереопара] [hand made 16:9]
    загрузка...
    Рейтинг →
     (голосов: 1, оценка 3/5, голосовать можно 1 раз )

    Другие торренты по теме:

  • Команда «Мстители» (Сезон 1, Серия: 1-26 из 26) / Мстители, общий сбор / Marvels Avengers Assemble (2013) WEB-DLRip скачать через торрент бесплатно
  • Команда «Мстители» (Сезон 2, Серия: 1-9 из ) / Мстители, общий сбор / Marvels Avengers Assemble (2014) WEB-DLRip (Обновляемая) скачать через торрент бесплатно
  • Команда «Мстители» (Сезон 1, Серия: 1-26 из 26) / Мстители, общий сбор / Marvels Avengers Assemble (2013) WEB-DL [1080p] скачать через торрент бесплатно
  • Команда «Мстители» / Мстители, общий сбор / Marvels Avengers Assemble (2014) WEB-DL [H.264 / 1080p] (Сезон 2, Серия: 1-17 из 26) [Обновляемая] скачать через торрент бесплатно
  • Alan Silvestri - Мстители / The Avengers (Complete Motion Picture Score) (2012) [MP3|320 кб / с]<Soundtrack>
  • Мстители / The Avengers (1998) HDRip [576p] iPad
  • Мстители: Эра Альтрона / Avengers: Age of Ultron (2015) WEBRip [1080p] [Трейлер] [RUS] скачать через торрент бесплатно
  • Мстители: Эра Альтрона / The Avengers: Age of Ultron (2015) DCPRip [2K] [Hi10P] [Трейлер]


    • Комментарии (0):

      Информация

      Информация

        Посетители, находящиеся в группе Гости, не могут оставлять комментарии в данной новости.

        ↓ Меню




        ↓ Опрос

        Вы добавили сайт в закладки?
        Да
        Нет


        Top 10 за месяц (Фильмы)