.
Авторизация | Регистрация
Хочешь лучшие торренты? Добавь свой email!
Добавить

Торрент скачать бесплатно

» » Мстители 2. Эра Альтрона / Avengers: Age of Ultron (2015) BDRip (3D) [H.264 / 1080p] [Вертикальная анаморфная стереопара] [hand made 16:9] скачать через торрент бесплатно




    Мстители 2. Эра Альтрона / Avengers: Age of Ultron (2015) BDRip (3D) [H.264 / 1080p] [Вертикальная анаморфная стереопара] [hand made 16:9] скачать через торрент бесплатно

    Опубликовал: Админ | Дата: 3-10-2015, 04:00 | Просмотров: 1305

    Производство: США/Marvel Studios Inc.
    Жанр: Фантастика, Приключения, Боевик, Комедия
    Режиссер: Джосс Уидон

    Актеры
    Роберт Дауни мл., Крис Хемсворт, Крис Эванс, Скарлетт Йоханссон, Марк Руффало, Джереми Реннер, Аарон Тейлор-Джонсон, Элизабет Олсен, Джеймс Спэйдер, Сэмюэл Л. Джексон.

    Описание

    Человечество на грани уничтожения. На этот раз людям угрожает Альтрон — искусственный интеллект, ранее созданный для того, чтобы защищать Землю от любых угроз. Однако, главной угрозой он посчитал человечество. Международная организация Щ. И. Т. распалась, и теперь мир не способен справиться с таким мощным врагом, потому люди вновь обращаются за помощью к Величайшим Героям Земли — Мстителям. Однако Альтрон слишком силен, и есть большая вероятность, что даже им не удастся остановить начало надвигающейся Эры Альтрона, где нет места для людей…

    Продолжительность: 2: 21: 17
    Качество видео: BDRip
    Перевод: Дублированный
    Видео: AVC/H.264, 1920х1080, ~13.0 mbps
    Аудио: AC3, 6 ch, 448 kbps, CBR
    Код:

    Общее
    Полное имя : D:КиноМстители 2. Эра Альтрона (3D) [crop].mkv
    Формат : Matroska
    Версия формата : Version 4/Version 2
    Размер файла : 13, 3 Гбайт
    Продолжительность : 2 ч. 21 м.
    Общий поток : 13, 4 Мбит/сек
    Название фильма : Мстители 2. Эра Альтрона (3D) [crop]
    Дата кодирования : UTC 2015-09-10 11:17:15
    Программа кодирования : mkvmerge v8.2.0 (\'World of Adventure\') 64bit
    Библиотека кодирования : libebml v1.3.1 + libmatroska v1.4.2
    Видео
    Идентификатор : 1
    Формат : AVC
    Формат/Информация : Advanced Video Codec
    Профиль формата :High@L4.1
    Параметр CABAC формата : Да
    Параметр ReFrames формата : 4 кадра
    Идентификатор кодека : V_MPEG4/ISO/AVC
    Продолжительность : 2 ч. 21 м.
    Битрейт : 13, 0 Мбит/сек
    Ширина : 1920 пикселей
    Высота : 1080 пикселей
    Соотношение сторон : 16:9
    Режим частоты кадров : Постоянный
    Частота кадров : 23, 976 кадра/сек
    Цветовое пространство : YUV
    Субдискретизация насыщенности : 4:2:0
    Битовая глубина : 8 бит
    Тип развёртки : Прогрессивная
    Бит/(Пиксели*Кадры) : 0.261
    Размер потока : 12, 6 Гбайт (95%)
    Заголовок : BDRip_1080p_Crop.HOU_by.SOLdAt
    Библиотека кодирования : x264 core 119
    Язык : Russian
    Default : Да
    Forced : Нет
    DURATION : 02:21:17.678000000
    NUMBER_OF_FRAMES : 203261
    NUMBER_OF_BYTES : 13771662684
    _STATISTICS_WRITING_APP : mkvmerge v8.2.0 (\'World of Adventure\') 64bit
    _STATISTICS_WRITING_DATE_UTC : 2015-09-10 11:17:15
    _STATISTICS_TAGS : BPS DURATION NUMBER_OF_FRAMES NUMBER_OF_BYTES
    Аудио
    Идентификатор : 2
    Формат : AC-3
    Формат/Информация : Audio Coding 3
    Расширение режима : CM (complete main)
    Параметр Endianness формата : Big
    Идентификатор кодека : A_AC3
    Продолжительность : 2 ч. Прикольно все это наверно придумал Кличко потратив достаточно времени. 21 м.
    Вид битрейта : Постоянный
    Битрейт : 448 Кбит/сек
    Каналы : 6 каналов
    Расположение каналов : Front: L C R, Side: L R, LFE
    Частота : 48, 0 КГц
    Метод сжатия : С потерями
    Задержка видео : -5 мс.
    Размер потока : 453 Мбайт (3%)
    Заголовок : 6 ch_448 kb/s
    Язык : Russian
    Default : Да
    Forced : Нет
    DURATION : 02:21:17.664000000
    NUMBER_OF_FRAMES : 264927
    NUMBER_OF_BYTES : 474749184
    _STATISTICS_WRITING_APP : mkvmerge v8.2.0 (\'World of Adventure\') 64bit
    _STATISTICS_WRITING_DATE_UTC : 2015-09-10 11:17:15
    _STATISTICS_TAGS : BPS DURATION NUMBER_OF_FRAMES NUMBER_OF_BYTES


    Скриншоты для ознакомления




    Онлайн видео Мстители 2. Эра Альтрона



    Мстители 2. Эра Альтрона/Avengers: Age of Ultron (2015) BDRip (3D) [H.264/1080p] [Вертикальная анаморфная стереопара] [hand made 16:9]
    загрузка...
    Рейтинг →
     (голосов: 1, оценка 5/5, голосовать можно 1 раз )

    Другие торренты по теме:

  • Мстители: Эра Альтрона / Avengers: Age of Ultron (2015) WEBRip [1080p] [Трейлер] [RUS] скачать через торрент бесплатно
  • Мстители: Эра Альтрона / The Avengers: Age of Ultron (2015) DCPRip [2K] [Hi10P] [Трейлер]
  • Мстители: Эра Альтрона / The Avengers: Age of Ultron (2015) WEBRip [1080p] [Расширенный Трейлер] скачать через торрент бесплатно
  • Мстители: Эра Альтрона / The Avengers: Age of Ultron (2015) WEBRip [1080p] [Трейлер 2] скачать через торрент бесплатно
  • Мстители: Эра Альтрона / Avengers: Age of Ultron (2015) CamRip скачать через торрент бесплатно
  • Мстители: Эра Альтрона / Avengers: Age of Ultron (2015) CamRip скачать через торрент бесплатно
  • Мстители: Эра Альтрона / Avengers: Age of Ultron (2015) CamRip скачать через торрент бесплатно
  • Мстители: Эра Альтрона / Avengers: Age of Ultron (2015) WEBRip [Звук с CamRip] скачать через торрент бесплатно


    • Комментарии (0):

      Информация

      Информация

        Посетители, находящиеся в группе Гости, не могут оставлять комментарии в данной новости.

        ↓ Меню




        ↓ Опрос

        Вы добавили сайт в закладки?
        Да
        Нет


        Top 10 за месяц (Фильмы)