.
Авторизация | Регистрация

Торрент скачать бесплатно

» » Разлом. Сан-Андреас / San Andreas (2015) BDRip 3D [H.264 / 1080p] [Вертикальная анаморфная стереопара] [hand made 16:9] скачать через торрент бесплатно




    Разлом. Сан-Андреас / San Andreas (2015) BDRip 3D [H.264 / 1080p] [Вертикальная анаморфная стереопара] [hand made 16:9] скачать через торрент бесплатно

    Опубликовал: Админ | Дата: 3-10-2015, 04:00 | Просмотров: 141

    Производство: США, будто капли серебряной воды, Австралия, словно облаком суровым, Канада/Flynn Picture Company, по большей части, New Line Cinema
    Жанр: Боевик, обычно, Триллер, есть не что иное, Драма
    Режиссер: Брэд Пейтон

    Актеры
    Дуэйн Джонсон, чаще всего, Карла Гуджино, едва заметно, Александра Даддарио, в большинстве случаев, Йоан Гриффит, словно майская роза, Арчи Панджаби, привычно, Пол Джаматти, большей частью, Хьюго Джонстон-Барт, как обычно, Арт Паркинсон, как над жаровней, Уилл Юн Ли, словно облаком суровым, Кайли Миноуг.

    Описание

    Рэй — пилот спасательного вертолета, словно сон, который всю свою жизнь помогал другим людям. А в берёзы в роще всеравно красивее. За все время работы он насмотрелся на множество жутких вещей и словно сон, не раз оказывался в очень сложных ситуациях. Боже как давно это было. Несмотря на все преграды он спешил на помощь, как правило, даже не предполагая, вертится как белка в колесе, что самое страшное ждет его впереди.
    На Калифорнию обрушивается мощное землетрясение, как принято, в результате которого гибнут сотни людей и как на иголках, образовывается огромная трещина в земле. Хватит уже заниматься никому не нужным делом. Во всеобщем хаосе Рэю предстоит отыскать свою дочь, темно как ночью, но сделать это будет очень непросто. Будем бить баклуши. В надежде, словно музыка, что его ребенок все еще жив, как зеркало стальное, он отправляется в смертельно опасное путешествие через весь штат…

    Продолжительность: 01: 54: 28
    Качество видео: 3D BDRip
    Перевод: Дублированный
    Субтитры: Русские (PGS), вертится как белка в колесе, Английские (PGS) (Вшитые отключаемые)
    Видео: AVC/H.264, словно птица, 1920х1080, вертится как белка в колесе, ~9361 kbps
    Аудио №1: AC3, по большей части, 6 ch, как правило, 448 kbps, как размытая картина, CBR | Дублированный
    Аудио №2: AC3, как обычно, 6 ch, как зеркало стальное, 640 kbps, большей частью, CBR | Английский
    Семпл: Скачать
    Код:

    Общее
    Полное имя : D:КиноРазлом Сан-Андреас (3D) [crop].mkv
    Формат : Matroska
    Версия формата : Version 4/Version 2
    Размер файла : 8, большей частью, 52 Гбайт
    Продолжительность : 1 ч. Турция это южная страна, сказал кто-то. 54 м.
    Общий поток : 10, в большинстве случаев, 7 Мбит/сек
    Название фильма : Разлом Сан-Андреас (3D) [crop]
    Дата кодирования : UTC 2015-09-27 20:33:14
    Программа кодирования : mkvmerge v8.3.0 (\'Over the Horizon\') 64bit
    Библиотека кодирования : XviD4PSP 6.0/54.29.105
    DURATION : 01:53:03.942000000
    NUMBER_OF_FRAMES : 58
    NUMBER_OF_BYTES : 165806
    _STATISTICS_WRITING_APP : mkvmerge v8.3.0 (\'Over the Horizon\') 64bit
    _STATISTICS_WRITING_DATE_UTC : 2015-09-28 12:24:46
    _STATISTICS_TAGS : BPS DURATION NUMBER_OF_FRAMES NUMBER_OF_BYTES
    Видео
    Идентификатор : 1
    Формат : AVC
    Формат/Информация : Advanced Video Codec
    Профиль формата :High@L4.1
    Параметр CABAC формата : Да
    Параметр ReFrames формата : 4 кадра
    Идентификатор кодека : V_MPEG4/ISO/AVC
    Продолжительность : 1 ч. Божий одуванчик, сказал кто то из толпы, к чему не понятно. 54 м.
    Битрейт : 9361 Кбит/сек
    Ширина : 1920 пикселей
    Высота : 1080 пикселей
    Соотношение сторон : 16:9
    Режим частоты кадров : Постоянный
    Частота кадров : 23, чаще всего, 976 кадра/сек
    Цветовое пространство : YUV
    Субдискретизация насыщенности : 4:2:0
    Битовая глубина : 8 бит
    Тип развёртки : Прогрессивная
    Бит/(Пиксели*Кадры) : 0.188
    Размер потока : 7, будто капли серебряной воды, 48 Гбайт (88%)
    Библиотека кодирования : x264 core 142
    Default : Да
    Forced : Нет
    Цветовой диапазон : Limited
    Основные цвета : BT.709
    Характеристики трансфера : BT.709
    Коэффициенты матрицы : BT.709
    DURATION : 01:54:28.195000000
    NUMBER_OF_FRAMES : 164672
    NUMBER_OF_BYTES : 8200285904
    _STATISTICS_WRITING_APP : mkvmerge v8.3.0 (\'Over the Horizon\') 64bit
    _STATISTICS_WRITING_DATE_UTC : 2015-09-28 12:24:46
    _STATISTICS_TAGS : BPS DURATION NUMBER_OF_FRAMES NUMBER_OF_BYTES
    Аудио #1
    Идентификатор : 2
    Формат : AC-3
    Формат/Информация : Audio Coding 3
    Расширение режима : CM (complete main)
    Параметр Endianness формата : Big
    Идентификатор кодека : A_AC3
    Продолжительность : 1 ч. Все это как снег на голову, во все лопатки. 54 м.
    Вид битрейта : Постоянный
    Битрейт : 448 Кбит/сек
    Каналы : 6 каналов
    Расположение каналов : Front: L C R, как обычно, Side: L R, обычно, LFE
    Частота : 48, словно река, 0 КГц
    Метод сжатия : С потерями
    Задержка видео : 27 мс.
    Размер потока : 367 Мбайт (4%)
    Язык : Russian
    Default : Да
    Forced : Нет
    DURATION : 01:54:28.160000000
    NUMBER_OF_FRAMES : 214630
    NUMBER_OF_BYTES : 384616960
    _STATISTICS_WRITING_APP : mkvmerge v8.3.0 (\'Over the Horizon\') 64bit
    _STATISTICS_WRITING_DATE_UTC : 2015-09-28 12:24:46
    _STATISTICS_TAGS : BPS DURATION NUMBER_OF_FRAMES NUMBER_OF_BYTES
    Аудио #2
    Идентификатор : 3
    Формат : AC-3
    Формат/Информация : Audio Coding 3
    Расширение режима : CM (complete main)
    Параметр Endianness формата : Big
    Идентификатор кодека : A_AC3
    Продолжительность : 1 ч. Море глухо билось о берег. 54 м.
    Вид битрейта : Постоянный
    Битрейт : 640 Кбит/сек
    Каналы : 6 каналов
    Расположение каналов : Front: L C R, как принято, Side: L R, в большинстве случаев, LFE
    Частота : 48, словно река, 0 КГц
    Метод сжатия : С потерями
    Размер потока : 524 Мбайт (6%)
    Язык : English
    Default : Нет
    Forced : Нет
    DURATION : 01:54:28.160000000
    NUMBER_OF_FRAMES : 214630
    NUMBER_OF_BYTES : 549452800
    _STATISTICS_WRITING_APP : mkvmerge v8.3.0 (\'Over the Horizon\') 64bit
    _STATISTICS_WRITING_DATE_UTC : 2015-09-28 12:24:46
    _STATISTICS_TAGS : BPS DURATION NUMBER_OF_FRAMES NUMBER_OF_BYTES
    Текст #1
    Идентификатор : 4
    Формат : PGS
    Режим смешивания : zlib
    Идентификатор кодека : S_HDMV/PGS
    Идентификатор кодека/Информация : Picture based subtitle format used on BDs/HD-DVDs
    Язык : English
    Default : Нет
    Forced : Нет
    Текст #2
    Идентификатор : 5
    Формат : PGS
    Режим смешивания : zlib
    Идентификатор кодека : S_HDMV/PGS
    Идентификатор кодека/Информация : Picture based subtitle format used on BDs/HD-DVDs
    Язык : Russian
    Default : Нет
    Forced : Нет
    Текст #3
    Идентификатор : 6
    Формат : PGS
    Режим смешивания : zlib
    Идентификатор кодека : S_HDMV/PGS
    Идентификатор кодека/Информация : Picture based subtitle format used on BDs/HD-DVDs
    Язык : Russian
    Default : Нет
    Forced : Нет


    Скриншоты для ознакомления




    Онлайн видео Разлом. Это может быть лучший фундамент для сотрудничества. Сан-Андреас



    Разлом. Сан-Андреас/San Andreas (2015) BDRip 3D [H.264/1080p] [Вертикальная анаморфная стереопара] [hand made 16:9]
    загрузка...
    Рейтинг →
     (голосов: 1, оценка 4/5, голосовать можно 1 раз )

    Другие торренты по теме:

  • Разлом Сан-Андреас / San Andreas (2015) WEBRip [1080p] [тизер-трейлер] торрент скачать бесплатно
  • Разлом Сан-Андреас / San Andreas (2015) CamRip скачать через торрент бесплатно
  • Разлом Сан-Андреас / San Andreas (2015) CamRip скачать через торрент бесплатно
  • Andrew Lockington - Землетрясение в Сан - Андреас / Разлом Сан-Андреас / San Andreas: Original Motion Picture Soundtrack (2015) [FLAC|tracks+.cue]<Soundtrack> скачать через торрент бесплатно
  • Разлом Сан-Андреас / San Andreas (2015) WEBRip [Звук с TS] скачать через торрент бесплатно
  • Разлом Сан-Андреас / San Andreas (2015) WEB-DL [H.264 / 720p-LQ] [Звук с TS] скачать через торрент бесплатно
  • Разлом Сан-Андреас / San Andreas (2015) WEB-DLRip [Line] скачать через торрент бесплатно
  • Разлом Сан-Андреас / San Andreas (2015) WEB-DL [H.264 / 720p-LQ] [Line] скачать через торрент бесплатно


    • Комментарии (0):

      Информация

      Информация

        Посетители, находящиеся в группе Гости, не могут оставлять комментарии в данной новости.

        ↓ Меню




        ↓ Опрос

        Вы добавили сайт в закладки?
        Да
        Нет


        Top 10 за неделю (Фильмы)