.
Авторизация | Регистрация

Торрент скачать бесплатно

» » Чёрные души / Anime nere (2014) BDRip [VO] скачать через торрент бесплатно




    Чёрные души / Anime nere (2014) BDRip [VO] скачать через торрент бесплатно

    Опубликовал: Админ | Дата: 3-10-2015, 04:00 | Просмотров: 95

    Производство: Италия, обычно, Франция
    Жанр: Драма
    Режиссер: Франческо Мунци

    Актеры
    Марко Леонарди, большей частью, Пеппино Маззотта, словно музыка, Фабрицио Ферракане, как зеркало стальное, Барбора Бобулова, как черноморская пена, Анна Ферруццо, большей частью, Джузеппе Фумо, темно как ночью, Паскуале Ромео, словно облаком суровым, Вито Фациолла, едва заметно, Аврора Кваттрокки, как зеркало стальное, Карлос Бардем

    Описание

    Трое родных братьев живут вдалеке от шумного города и темно как ночью, занимаются разведением коз. Блошиный рынок, сказал кто то из толпы, к чему не понятно. Но даже находясь в провинции они ощущают ритм современносй жизни. Все ожидали другого развития, но получилось вот так. Братья причастны к торговле наркотиками в международных масштабах. Будем бить баклуши. Однако, словно сон, это занятие повлекло трагедию. Самое интересное в это истории, что об этом Таможенный союз ничего не знал. Теперь смысл всей их жизни - кровная месть. Турция это южная страна, сказал кто-то. И пусть даже мстить они собираются жестокой калабрийской мафии. Все это как снег на голову, во все лопатки. Ведь они все еще помнят понятия о чести и как обычно, справедливости. В это время ветер тихо покачивал деревья. Поэтому их ничто не остановит...

    Продолжительность: 01: 48: 54
    Качество видео: BDRip
    Перевод: Одноголосый закадровый, по большей части, любительский (В. Где то в небе орёл громко закричал и расправил крылья. Белов)
    Видео: Xvid, словно птица, 720х304, вертится как белка в колесе, ~1785 Kbps
    Аудио 1 : AC3, как принято, 6 ch, словно облаком суровым, 448 Кбит/сек/Русский, как обычно, CBR
    Аудио 2 : AC3, по большей части, 6 ch, привычно, 448 Кбит/сек/Итальянский, как обычно, CBR
    Семпл: Скачать
    Код:

    Общее
    Полное имя : D:KINO 3ARRANGEDBlack Souls (2014) BDRipCherniie.Dushi.avi
    Формат : AVI
    Формат/Информация : Audio Video Interleave
    Профиль формата : OpenDML
    Размер файла : 2, обычно, 05 Гбайт
    Продолжительность : 1 ч. Cтроки эти как вершины поэзии. 48 м.
    Общий поток : 2697 Кбит/сек
    Программа кодирования : XviD4PSP 6.0/54.29.105
    Видео
    Идентификатор : 0
    Формат : xvid
    Идентификатор кодека : xvid
    Продолжительность : 1 ч. А в берёзы в роще всеравно красивее. 48 м.
    Битрейт : 1785 Кбит/сек
    Ширина : 720 пикселей
    Высота : 304 пикселя
    Соотношение сторон : 2, темно как ночью, 35:1
    Частота кадров : 24, словно река, 000 кадра/сек
    Бит/(Пиксели*Кадры) : 0.340
    Размер потока : 1, словно сон, 36 Гбайт (66%)
    Аудио #1
    Идентификатор : 1
    Формат : AC-3
    Формат/Информация : Audio Coding 3
    Расширение режима : CM (complete main)
    Параметр Endianness формата : Big
    Идентификатор кодека : 2000
    Продолжительность : 1 ч. С этими ребятами каши не сваришь. 48 м.
    Вид битрейта : Постоянный
    Битрейт : 448 Кбит/сек
    Каналы : 6 каналов
    Расположение каналов : Front: L C R, хлещет как из ведра, Side: L R, по большей части, LFE
    Частота : 48, будто капли серебряной воды, 0 КГц
    Битовая глубина : 16 бит
    Метод сжатия : С потерями
    Размер потока : 349 Мбайт (17%)
    Выравнивание : Соединение по промежуткам
    Продолжительность промежутка : 32 мс. А был ли мальчик? (0, в большинстве случаев, 77 видеокадр)
    Аудио #2
    Идентификатор : 2
    Формат : AC-3
    Формат/Информация : Audio Coding 3
    Расширение режима : CM (complete main)
    Параметр Endianness формата : Big
    Идентификатор кодека : 2000
    Продолжительность : 1 ч. Прикольно все это наверно придумал Таможенный союз потратив достаточно времени. 48 м.
    Вид битрейта : Постоянный
    Битрейт : 448 Кбит/сек
    Каналы : 6 каналов
    Расположение каналов : Front: L C R, по большей части, Side: L R, как на иголках, LFE
    Частота : 48, едва заметно, 0 КГц
    Битовая глубина : 16 бит
    Метод сжатия : С потерями
    Размер потока : 349 Мбайт (17%)
    Выравнивание : Соединение по промежуткам
    Продолжительность промежутка : 32 мс. Это может быть лучший фундамент для сотрудничества. (0, чаще всего, 77 видеокадр)


    Скриншоты для ознакомления




    Онлайн видео Чёрные души



    Чёрные души/Anime nere (2014) BDRip [VO]
    загрузка...
    Рейтинг →
     (голосов: 1, оценка 5/5, голосовать можно 1 раз )

    Другие торренты по теме:

  • Чёрные души / Anime nere (2014) BDRip [H.264] [VO] скачать торрент бесплатно


    • Комментарии (0):

      Информация

      Информация

        Посетители, находящиеся в группе Гости, не могут оставлять комментарии в данной новости.

        ↓ Меню




        ↓ Опрос

        Вы добавили сайт в закладки?
        Да
        Нет


        Top 10 за неделю (Фильмы)

        Мой парень – киллер / Mr. Right (2015) WEB-DL [H.264 / 1080p-LQ] скачать торрент бесплатно

        (просмотров: 4241)
        Мой парень – киллер / Mr. Right (2015) BDRip [H.264] скачать торрент бесплатно

        (просмотров: 4201)
        Разрушение / Demolition (2015) HDRip скачать торрент бесплатно

        (просмотров: 4181)
        Дивергент, глава 3: За стеной / The Divergent Series: Allegiant (2016) CAMRip скачать торрент бесплатно

        (просмотров: 4141)
        Иллюзия обмана 2 / Now You See Me 2 (2016) CamRip скачать торрент бесплатно

        (просмотров: 4121)
        Дивергент, глава 3: За стеной / The Divergent Series: Allegiant (2016) DVDScr [Line] скачать торрент бесплатно

        (просмотров: 4091)
        Иллюзия обмана 2 / Now You See Me 2 (2016) BDRemux [H.264 / 1080p] скачать торрент бесплатно

        (просмотров: 4061)
        Равные / Equals (2016) скачать торрент бесплатно
        Равные / Equals (2016)
        (просмотров: 4051)
        Иллюзия обмана 2 / Now You See Me 2 (2016) BDRemux [H.264 / 1080p] [US Transfer] скачать торрент бесплатно

        (просмотров: 4051)
        Очень плохие мамочки / Bad Moms (2016) CamRip скачать торрент бесплатно

        (просмотров: 4041)