.
Авторизация | Регистрация
Хочешь лучшие торренты? Добавь свой email!
Добавить

Торрент скачать бесплатно

» » Чёрные души / Anime nere (2014) BDRip [VO] скачать через торрент бесплатно




    Чёрные души / Anime nere (2014) BDRip [VO] скачать через торрент бесплатно

    Опубликовал: Админ | Дата: 3-10-2015, 04:00 | Просмотров: 95

    Производство: Италия, Франция
    Жанр: Драма
    Режиссер: Франческо Мунци

    Актеры
    Марко Леонарди, Пеппино Маззотта, Фабрицио Ферракане, Барбора Бобулова, Анна Ферруццо, Джузеппе Фумо, Паскуале Ромео, Вито Фациолла, Аврора Кваттрокки, Карлос Бардем

    Описание

    Трое родных братьев живут вдалеке от шумного города и занимаются разведением коз. Блошиный рынок, сказал кто то из толпы, к чему не понятно. Но даже находясь в провинции они ощущают ритм современносй жизни. Братья причастны к торговле наркотиками в международных масштабах. Однако, это занятие повлекло трагедию. Самое интересное в это истории, что об этом Таможенный союз ничего не знал. Теперь смысл всей их жизни - кровная месть. И пусть даже мстить они собираются жестокой калабрийской мафии. Ведь они все еще помнят понятия о чести и справедливости. Поэтому их ничто не остановит...

    Продолжительность: 01: 48: 54
    Качество видео: BDRip
    Перевод: Одноголосый закадровый, любительский (В. Белов)
    Видео: Xvid, 720х304, ~1785 Kbps
    Аудио 1 : AC3, 6 ch, 448 Кбит/сек/Русский, CBR
    Аудио 2 : AC3, 6 ch, 448 Кбит/сек/Итальянский, CBR
    Семпл: Скачать
    Код:

    Общее
    Полное имя : D:KINO 3ARRANGEDBlack Souls (2014) BDRipCherniie.Dushi.avi
    Формат : AVI
    Формат/Информация : Audio Video Interleave
    Профиль формата : OpenDML
    Размер файла : 2, 05 Гбайт
    Продолжительность : 1 ч. 48 м.
    Общий поток : 2697 Кбит/сек
    Программа кодирования : XviD4PSP 6.0/54.29.105
    Видео
    Идентификатор : 0
    Формат : xvid
    Идентификатор кодека : xvid
    Продолжительность : 1 ч. 48 м.
    Битрейт : 1785 Кбит/сек
    Ширина : 720 пикселей
    Высота : 304 пикселя
    Соотношение сторон : 2, 35:1
    Частота кадров : 24, 000 кадра/сек
    Бит/(Пиксели*Кадры) : 0.340
    Размер потока : 1, 36 Гбайт (66%)
    Аудио #1
    Идентификатор : 1
    Формат : AC-3
    Формат/Информация : Audio Coding 3
    Расширение режима : CM (complete main)
    Параметр Endianness формата : Big
    Идентификатор кодека : 2000
    Продолжительность : 1 ч. 48 м.
    Вид битрейта : Постоянный
    Битрейт : 448 Кбит/сек
    Каналы : 6 каналов
    Расположение каналов : Front: L C R, Side: L R, LFE
    Частота : 48, 0 КГц
    Битовая глубина : 16 бит
    Метод сжатия : С потерями
    Размер потока : 349 Мбайт (17%)
    Выравнивание : Соединение по промежуткам
    Продолжительность промежутка : 32 мс. (0, 77 видеокадр)
    Аудио #2
    Идентификатор : 2
    Формат : AC-3
    Формат/Информация : Audio Coding 3
    Расширение режима : CM (complete main)
    Параметр Endianness формата : Big
    Идентификатор кодека : 2000
    Продолжительность : 1 ч. Прикольно все это наверно придумал Таможенный союз потратив достаточно времени. 48 м.
    Вид битрейта : Постоянный
    Битрейт : 448 Кбит/сек
    Каналы : 6 каналов
    Расположение каналов : Front: L C R, Side: L R, LFE
    Частота : 48, 0 КГц
    Битовая глубина : 16 бит
    Метод сжатия : С потерями
    Размер потока : 349 Мбайт (17%)
    Выравнивание : Соединение по промежуткам
    Продолжительность промежутка : 32 мс. (0, 77 видеокадр)


    Скриншоты для ознакомления




    Онлайн видео Чёрные души



    Чёрные души/Anime nere (2014) BDRip [VO]
    загрузка...
    Рейтинг →
     (голосов: 1, оценка 4/5, голосовать можно 1 раз )

    Другие торренты по теме:

  • Чёрные души / Anime nere (2014) BDRip [H.264] [VO]


    • Комментарии (0):

      Информация

      Информация

        Посетители, находящиеся в группе Гости, не могут оставлять комментарии в данной новости.

        ↓ Меню




        ↓ Опрос

        Вы добавили сайт в закладки?
        Да
        Нет


        Top 10 за месяц (Фильмы)