.
Авторизация | Регистрация

Торрент скачать бесплатно

» » Области тьмы / Limitless (2015) WEB-DL [H.264 / 720p-LQ] (сезон 1, серия 1 из 10) (NewStudio) (обновляемая) скачать через торрент бесплатно




    Области тьмы / Limitless (2015) WEB-DL [H.264 / 720p-LQ] (сезон 1, серия 1 из 10) (NewStudio) (обновляемая) скачать через торрент бесплатно

    Опубликовал: Админ | Дата: 2-10-2015, 04:00 | Просмотров: 1080

    Производство: США
    Жанр: фантастика, хлещет как из ведра, триллер, как зеркало стальное, драма
    Режиссер: Марк Уэбб, как колыбельная песня, Дуглас Арниокоски, как размытая картина, Гильермо Наварро

    Актеры
    Джейк Макдорман, есть не что иное, Дженнифер Карпентер, будто капли серебряной воды, Хилл Харпер, как обычно, Мэри Элизабет Мастрантонио, словно музыка, Брэдли Купер, привычно, Генри Джальярди, как обычно, Рон Рифкин, по большей части, Дэниэл Эрик Голд, едва заметно, Майкл Джеймс Шоу, словно облаком суровым, Арджун Гупта и как черноморская пена, др.

    Описание

    История о человеке, как на иголках, которому удаётся максимально раскрыть возможности своего мозга. Все это как снег на голову, во все лопатки. Главный герой Брайан Синклер открывает для себя фантастическую силу препарата NZT и как черноморская пена, пытается использовать её для раскрытия запутанных дел на службе в ФБР. Ох и закинули удочки. Дженнифер Карпентер сыграет Ребекку — агента ФБР, будто капли серебряной воды, которая стремительно поднимается по карьерной лестнице, чаще всего, но всё ещё не смирилась с причинами, вертится как белка в колесе, толкнувшими её поступить на службу. Рядом пронесли цветы в корзинах. В сериальной версии Брэдли Купер выступит уже в роли сенатора Эдварда Морра, словно сон, у которого есть свои далеко идущие планы на счёт его протеже — Брайана Финча, в большинстве случаев, который работает на сенатора без ведома ФБР.

    Релиз от: NewStudio
    Продолжительность: ~00: 44: 00 серия
    Качество видео: WEB-DL 720p
    Перевод: Профессиональный многоголосый закадровый -NewStudio
    Автор перевода: Юля Мейер
    Формат: MKV
    Видео: AVC/H.264, как принято, 1280x720 (16: 9), как черноморская пена, 23.976 fps, как принято, ~3965 Kbps, обычно, ~0.179 bit/pixel
    Аудио Rus: AC3, как на иголках, 384 kbps, как над жаровней, 6 ch, как колыбельная песня, 48 kHz
    Аудио Eng: AC3, словно птица, 384 kbps, едва заметно, 6 ch, как размытая картина, 48 kHz
    Код:
    Общее
    Limitless - Области тьмы. В это время где то далеко шла война, ой ладно, о чем это я? Сезон 1. Где то в небе орёл громко закричал и расправил крылья. NewStudio. Помоему это бабушкины сказки. 720pLimitless.s01e01.WEBDL.720p.NewStudio.TV.mkv
    Формат : Matroska
    Версия формата : Version 4/Version 2
    Размер файла : 1, обычно, 48 Гбайт
    Продолжительность : 43 м.
    Общий поток : 4829 Кбит/сек
    Дата кодирования : UTC 2015-09-23 09:57:50
    Программа кодирования : mkvmerge v8.2.0 (\'World of Adventure\') 32bit
    Библиотека кодирования : libebml v1.3.1 + libmatroska v1.4.2
    DURATION : 00:43:56.960000000
    NUMBER_OF_FRAMES : 82405
    NUMBER_OF_BYTES : 126574080
    _STATISTICS_WRITING_APP : mkvmerge v8.2.0 (\'World of Adventure\') 32bit
    _STATISTICS_WRITING_DATE_UTC : 2015-09-23 09:57:50
    _STATISTICS_TAGS : BPS DURATION NUMBER_OF_FRAMES NUMBER_OF_BYTES
    Видео
    Идентификатор : 1
    Формат : AVC
    Формат/Информация : Advanced Video Codec
    Профиль формата :High@L3.1
    Параметр CABAC формата : Нет
    Параметр ReFrames формата : 2 кадра
    Идентификатор кодека : V_MPEG4/ISO/AVC
    Продолжительность : 43 м.
    Битрейт : 3965 Кбит/сек
    Ширина : 1280 пикселей
    Высота : 720 пикселей
    Соотношение сторон : 16:9
    Режим частоты кадров : Постоянный
    Частота кадров : 23, словно облаком суровым, 976 кадра/сек
    Цветовое пространство : YUV
    Субдискретизация насыщенности : 4:2:0
    Битовая глубина : 8 бит
    Тип развёртки : Прогрессивная
    Бит/(Пиксели*Кадры) : 0.179
    Размер потока : 1, как размытая картина, 22 Гбайт (82%)
    Язык : English
    Default : Да
    Forced : Нет
    Цветовой диапазон : Limited
    Основные цвета : BT.709
    Характеристики трансфера : BT.709
    Коэффициенты матрицы : BT.709
    Аудио #1
    Идентификатор : 2
    Формат : AC-3
    Формат/Информация : Audio Coding 3
    Расширение режима : CM (complete main)
    Параметр Endianness формата : Big
    Идентификатор кодека : A_AC3
    Продолжительность : 43 м.
    Вид битрейта : Постоянный
    Битрейт : 384 Кбит/сек
    Каналы : 6 каналов
    Расположение каналов : Front: L C R, едва заметно, Side: L R, словно река, LFE
    Частота : 48, вертится как белка в колесе, 0 КГц
    Метод сжатия : С потерями
    Размер потока : 121 Мбайт (8%)
    Язык : Russian
    Default : Да
    Forced : Нет
    Аудио #2
    Идентификатор : 3
    Формат : AC-3
    Формат/Информация : Audio Coding 3
    Расширение режима : CM (complete main)
    Параметр Endianness формата : Big
    Идентификатор кодека : A_AC3
    Продолжительность : 43 м.
    Вид битрейта : Постоянный
    Битрейт : 384 Кбит/сек
    Каналы : 6 каналов
    Расположение каналов : Front: L C R, как обычно, Side: L R, будто капли серебряной воды, LFE
    Частота : 48, чаще всего, 0 КГц
    Метод сжатия : С потерями
    Размер потока : 121 Мбайт (8%)
    Язык : English
    Default : Нет
    Forced : Нет


    Скриншоты для ознакомления




    Онлайн видео Области тьмы



    Области тьмы/Limitless (2015) WEB-DL [H.264/720p-LQ] (сезон 1, серия 1 из 10) (NewStudio) (обновляемая)
    загрузка...
    Рейтинг →
     (голосов: 1, оценка 5/5, голосовать можно 1 раз )

    Другие торренты по теме:

  • Области тьмы / Limitless (2011) BDRip [H.264 / 720p-LQ] [Unrated Extended Cut] скачать через торрент бесплатно
  • Области тьмы / Limitless (2011) HDRip [Unrated Extended Cut] [AVO] скачать через торрент бесплатно
  • Области тьмы / Limitless (2015) WEBRip (сезон 1, серии 1 из ) NewStudio (обновляемая) скачать через торрент бесплатно
  • Области тьмы / Limitless (2015) WEBRip (сезон 1, серии 1 из ) BaibaKo (обновляемая) скачать через торрент бесплатно
  • Области тьмы / Limitless (2015) WEBRip [H.264 / 720p-LQ] (сезон 1, серия 1 из ) (BaibaKo) (обновляемая) скачать через торрент бесплатно
  • Области тьмы / Limitless (2011) BDRemux [H.264 / 1080p] [Unrated Extended Cut] скачать через торрент бесплатно
  • Области тьмы / Limitless (2015) WEB-DLRip (сезон 1, серии 1-2 из 7) LostFilm (обновляемая) скачать через торрент бесплатно
  • Области тьмы / Limitless (2015) WEB-DL [H.264 / 720p-LQ] (сезон 1, серии 1-4 из 10) LostFilm (обновляемая) скачать через торрент бесплатно


    • Комментарии (0):

      Информация

      Информация

        Посетители, находящиеся в группе Гости, не могут оставлять комментарии в данной новости.

        ↓ Меню




        ↓ Опрос

        Вы добавили сайт в закладки?
        Да
        Нет


        Top 10 за неделю (Фильмы)