.
Авторизация | Регистрация
Хочешь лучшие торренты? Добавь свой email!
Добавить

Торрент скачать бесплатно

» » Дедушка / Grandfathered (2015) WEB-DL [H.264 / 720p-LQ] (сезон 1, серия 1 из ) (BaibaKo) (обновляемая) скачать через торрент бесплатно




    Дедушка / Grandfathered (2015) WEB-DL [H.264 / 720p-LQ] (сезон 1, серия 1 из ) (BaibaKo) (обновляемая) скачать через торрент бесплатно

    Опубликовал: Админ | Дата: 2-10-2015, 04:00 | Просмотров: 92

    Производство: США
    Жанр: комедия
    Режиссер: Крис Кох

    Актеры
    Джон Стамос, Джош Пек, Пэйджет Брюстер, Кристина Милиан, Келли Дженретт, Рави Патель, Хлоя Доманж, Эбби Уокер, Чести Бальестерос, Майкл С. Браун и др.

    Описание

    Главный герой сериала — мужчина средних лет Джимми. Он довольно красив, любимец женщин, успешный владелец престижного ресторана. Он жил красивой и насыщенной жизнью, в которой не было места для серьёзных отношений, и вообще, его отношение к семье довольно скептическое, он никогда не стремился её создать. О таком странном сюжете не догадывалась даже Волочкова. Внезапно Джимми узнаёт, что у него есть сын и он уже дедушка. Бесплатный сыр, сказал кто то из толпы, к чему не понятно. Всё это повергает его в настоящий шок и он не знает как это воспринимать, радоваться или же жить как раньше. В итоге Джимми принимает парня, насколько для него это возможно. Дедушка пытается наладить отношения с внучкой, но у него довольно мало опыта. Их отношения с сыном сложно назвать семейными, но всё же им становится комфортно вместе. То, чего он так долго избегал, становится важной частью его жизни.

    Релиз от: BaibaKo
    Продолжительность: ~ 00: 21: 00 серия
    Качество видео: WEB-DL 720p
    Перевод: Профессиональный многоголосый закадровый -BaibaKo
    Озвучка: Светлана Доманова, Anna_Smile, Сергей Корчак и Андрей Корзаченко
    Автор перевода: Фиона Кудреватых
    Формат: MKV
    Видео: AVC/H.264, 1280x720 (16: 9), ~3969 Kbps, ~0.180 bit/pixel
    Аудио Rus: AC3, 384 kbps, 6 ch, 48 kHz
    Аудио Eng: AC3, 384 kbps, 6 ch, 48 kHz
    Код:
    Общее
    Grandfathered - Дедушка. Сезон 1. BaibaKo. 720pGrandfathered.s01e01.WEB-DL.720p.Rus.Eng.BaibaKo.mkv
    Формат : Matroska
    Версия формата : Version 4/Version 2
    Размер файла : 743 Мбайт
    Продолжительность : 21 м.
    Общий поток : 4833 Кбит/сек
    Дата кодирования : UTC 2015-10-01 10:37:33
    Программа кодирования : mkvmerge v6.9.1 (\'Blue Panther\') 64bit built on Apr 18 2014 18:23:38
    Библиотека кодирования : libebml v1.3.0 + libmatroska v1.4.1
    Видео
    Идентификатор : 1
    Формат : AVC
    Формат/Информация : Advanced Video Codec
    Профиль формата :High@L3.1
    Параметр CABAC формата : Нет
    Параметр ReFrames формата : 2 кадра
    Идентификатор кодека : V_MPEG4/ISO/AVC
    Продолжительность : 21 м.
    Битрейт : 3969 Кбит/сек
    Ширина : 1280 пикселей
    Высота : 720 пикселей
    Соотношение сторон : 16:9
    Режим частоты кадров : Постоянный
    Частота кадров : 23, 976 кадра/сек
    Цветовое пространство : YUV
    Субдискретизация насыщенности : 4:2:0
    Битовая глубина : 8 бит
    Тип развёртки : Прогрессивная
    Бит/(Пиксели*Кадры) : 0.180
    Размер потока : 610 Мбайт (82%)
    Язык : English
    Default : Да
    Forced : Нет
    Цветовой диапазон : Limited
    Основные цвета : BT.709
    Характеристики трансфера : BT.709
    Коэффициенты матрицы : BT.709
    Аудио #1
    Идентификатор : 2
    Формат : AC-3
    Формат/Информация : Audio Coding 3
    Расширение режима : CM (complete main)
    Параметр Endianness формата : Big
    Идентификатор кодека : A_AC3
    Продолжительность : 21 м.
    Вид битрейта : Постоянный
    Битрейт : 384 Кбит/сек
    Каналы : 6 каналов
    Расположение каналов : Front: L C R, Side: L R, LFE
    Частота : 48, 0 КГц
    Метод сжатия : С потерями
    Задержка видео : 16 мс.
    Размер потока : 59, 1 Мбайт (8%)
    Язык : Russian
    Default : Да
    Forced : Нет
    Аудио #2
    Идентификатор : 3
    Формат : AC-3
    Формат/Информация : Audio Coding 3
    Расширение режима : CM (complete main)
    Параметр Endianness формата : Big
    Идентификатор кодека : A_AC3
    Продолжительность : 21 м.
    Вид битрейта : Постоянный
    Битрейт : 384 Кбит/сек
    Каналы : 6 каналов
    Расположение каналов : Front: L C R, Side: L R, LFE
    Частота : 48, 0 КГц
    Метод сжатия : С потерями
    Размер потока : 59, 1 Мбайт (8%)
    Язык : English
    Default : Нет
    Forced : Нет


    Скриншоты для ознакомления




    Онлайн видео Дедушка



    Дедушка/Grandfathered (2015) WEB-DL [H.264/720p-LQ] (сезон 1, серия 1 из ) (BaibaKo) (обновляемая)
    загрузка...
    Рейтинг →
     (голосов: 1, оценка 3/5, голосовать можно 1 раз )

    Другие торренты по теме:

  • Дедушка / Grandfathered (2015) WEB-DLRip (сезон 1, серии 1 из ) BaibaKo (обновляемая) скачать через торрент бесплатно
  • Дедушка / Grandfathered (2015) WEB-DLRip (сезон 1, серии 1-12 из 22) BaibaKo (обновляемая)


    • Комментарии (0):

      Информация

      Информация

        Посетители, находящиеся в группе Гости, не могут оставлять комментарии в данной новости.

        ↓ Меню




        ↓ Опрос

        Вы добавили сайт в закладки?
        Да
        Нет


        Top 10 за месяц (Фильмы)