.
Авторизация | Регистрация
Хочешь лучшие торренты? Добавь свой email!
Добавить

Торрент скачать бесплатно

» » База Куантико / Куантико / Quantico (2015) WEB-DL [H.264 / 720p-LQ] (сезон 1, серия 1 из 14) (BaibaKo) (обновляемая) скачать через торрент бесплатно




    База Куантико / Куантико / Quantico (2015) WEB-DL [H.264 / 720p-LQ] (сезон 1, серия 1 из 14) (BaibaKo) (обновляемая) скачать через торрент бесплатно

    Опубликовал: Админ | Дата: 1-10-2015, 04:00 | Просмотров: 274

    Производство: США
    Жанр: драма
    Режиссер: Марк Манден

    Актеры
    Приянка Чопра, Онжаню Эллис, Джэйк МакЛафлин, Ясмин Эл Массри, Джоанна Э. Брэдди, Тейт Эллингтон, Грэхэм Роджерс, Анабель Акоста, Анна Хайа, Диллон Мэтьюз, Марк Пеллегрино и др.

    Описание

    Шесть совершенно разных новобранцев поступают на стажировку в ФБР на базу Куантико в штате Вирджиния. Базой руководит Миранда Шоу, первая женщина на высшей должности в ФБР. Миранда объединяется со своим бывшим партнером, Лиамом О`Коннором, который ныне работает советником, чтобы отобрать лучших новобранцев в агенты. Тем не менее в будущем один из новобранцев будет подозреваемым в планировании крупнейшего с 11 сентября террористического акта по Нью-Йорку.

    Релиз от: BaibaKo
    Продолжительность: ~ 00: 43: 00 серия
    Качество видео: WEB-DL 720p
    Перевод: Профессиональный многоголосый закадровый -BaibaKo
    Озвучка: Anna_Smile, Юля Малахова, Дмитрий Глебов и Андрей Корзаченко
    Автор перевода: Янина Галицкая и Татьяна Saavick
    Формат: MKV
    Видео: AVC/H.264, 1280x720 (16: 9), ~3986 Kbps, ~0.180 bit/pixel
    Аудио Rus: AC3, 384 kbps, 6 ch, 48 kHz
    Аудио Eng: AC3, 384 kbps, 6 ch, 48 kHz
    Код:
    Общее
    Quantico - Куантико. Сезон 1. BaibaKo. 720pQuantico.s01e01.WEB-DL.720p.Rus.Eng.BaibaKo.mkv
    Формат : Matroska
    Версия формата : Version 4/Version 2
    Размер файла : 1, 46 Гбайт
    Продолжительность : 43 м.
    Общий поток : 4850 Кбит/сек
    Дата кодирования : UTC 2015-09-30 05:32:05
    Программа кодирования : mkvmerge v6.9.1 (\'Blue Panther\') 64bit built on Apr 18 2014 18:23:38
    Библиотека кодирования : libebml v1.3.0 + libmatroska v1.4.1
    Видео
    Идентификатор : 1
    Формат : AVC
    Формат/Информация : Advanced Video Codec
    Профиль формата :High@L3.1
    Параметр CABAC формата : Нет
    Параметр ReFrames формата : 2 кадра
    Идентификатор кодека : V_MPEG4/ISO/AVC
    Продолжительность : 43 м.
    Битрейт : 3986 Кбит/сек
    Ширина : 1280 пикселей
    Высота : 720 пикселей
    Соотношение сторон : 16:9
    Режим частоты кадров : Постоянный
    Частота кадров : 24, 000 кадра/сек
    Цветовое пространство : YUV
    Субдискретизация насыщенности : 4:2:0
    Битовая глубина : 8 бит
    Тип развёртки : Прогрессивная
    Бит/(Пиксели*Кадры) : 0.180
    Размер потока : 1, 20 Гбайт (82%)
    Язык : English
    Default : Да
    Forced : Нет
    Цветовой диапазон : Limited
    Основные цвета : BT.709
    Характеристики трансфера : BT.709
    Коэффициенты матрицы : BT.709
    Аудио #1
    Идентификатор : 2
    Формат : AC-3
    Формат/Информация : Audio Coding 3
    Расширение режима : CM (complete main)
    Параметр Endianness формата : Big
    Идентификатор кодека : A_AC3
    Продолжительность : 43 м.
    Вид битрейта : Постоянный
    Битрейт : 384 Кбит/сек
    Каналы : 6 каналов
    Расположение каналов : Front: L C R, Side: L R, LFE
    Частота : 48, 0 КГц
    Метод сжатия : С потерями
    Задержка видео : 16 мс.
    Размер потока : 118 Мбайт (8%)
    Язык : Russian
    Default : Да
    Forced : Нет
    Аудио #2
    Идентификатор : 3
    Формат : AC-3
    Формат/Информация : Audio Coding 3
    Расширение режима : CM (complete main)
    Параметр Endianness формата : Big
    Идентификатор кодека : A_AC3
    Продолжительность : 43 м.
    Вид битрейта : Постоянный
    Битрейт : 384 Кбит/сек
    Каналы : 6 каналов
    Расположение каналов : Front: L C R, Side: L R, LFE
    Частота : 48, 0 КГц
    Метод сжатия : С потерями
    Размер потока : 118 Мбайт (8%)
    Язык : English
    Default : Нет
    Forced : Нет


    Скриншоты для ознакомления




    Онлайн видео База Куантико



    База Куантико/Куантико/Quantico (2015) WEB-DL [H.264/720p-LQ] (сезон 1, серия 1 из 14) (BaibaKo) (обновляемая)
    загрузка...
    Рейтинг →
     (голосов: 1, оценка 4/5, голосовать можно 1 раз )

    Другие торренты по теме:

  • База Куантико / Куантико / Quantico (2015) WEB-DLRip (сезон 1, серии 1 из 14) BaibaKo (обновляемая) скачать через торрент бесплатно
  • База Куантико / Куантико / Quantico (2015) WEB-DLRip (сезон 1, серии 1 из 14) NewStudio (обновляемая) скачать через торрент бесплатно
  • База Куантико / Куантико / Quantico (2015) WEB-DLRip (сезон 1, серии 1-15 из 22) BaibaKo (обновляемая)
  • База Куантико / Куантико / Quantico (2015) WEB-DLRip (сезон 1, серии 1-14 из 22) NewStudio (обновляемая)
  • База Куантико / Куантико / Quantico (2015) WEB-DLRip [H.264 / 1080p-LQ] (сезон 1, серии 1-20 из 22) NewStudio (обновляемая)
  • База Куантико / Куантико / Quantico (2016) WEB-DL [H.264 / 720p-LQ] (сезон 2, серии 1-14 из 22) BaibaKo (обновляемая)
  • База Куантико / Куантико / Quantico (2016) WEB-DL [H.264 / 1080p-LQ] (сезон 2, серии 1-22 из 22) NewStudio [AD]
  • База Куантико / Куантико / Quantico (2016) WEB-DLRip (сезон 2, серии 1-22 из 22) NewStudio [AD]


    • Комментарии (0):

      Информация

      Информация

        Посетители, находящиеся в группе Гости, не могут оставлять комментарии в данной новости.

        ↓ Меню




        ↓ Опрос

        Вы добавили сайт в закладки?
        Да
        Нет


        Top 10 за месяц (Фильмы)