.
Авторизация | Регистрация
Хочешь лучшие торренты? Добавь свой email!
Добавить

Торрент скачать бесплатно

» » Отец Браун / Патер Браун / Father Brown (2015) HDTVRip (сезон 3, серии 1-8 из 15) ТВЦ (обновляемая) скачать через торрент бесплатно




    Отец Браун / Патер Браун / Father Brown (2015) HDTVRip (сезон 3, серии 1-8 из 15) ТВЦ (обновляемая) скачать через торрент бесплатно

    Опубликовал: Админ | Дата: 1-10-2015, 04:00 | Просмотров: 84

    Производство: Великобритания/BBC Productions, BBC Drama Productions, BBC Worldwide
    Жанр: драма, детектив
    Режиссер: Мэтт Картер

    Актеры
    Марк Уильямс, Сорча Кьюсак, Нэнси Кэролл, Алекс Прайс, Том Чэмберс, Джон Бертон и др.

    Описание

    Продолжение замечательного детектива о расследованиях провинциального священника патера Брауна по произведениям классика английской литературы Гилберта Кита Честертона. Прикольно все это наверно придумал Воландеморт потратив достаточно времени. Вас ждут прелестнейшие виды английской глубинки середины прошлого века, приятный диалоги и запутаннейшие сюжеты, из которых находчивый патер выходит с неизменным достоинством, благородством и юмором.

    Продолжительность: ~00: 44: 00 серия
    Качество видео: HDTVRip
    Перевод: Многоголосый закадровый, профессиональный -ТВЦ
    Вид субтитров: отдельным файлом
    Язык субтитров: русский
    Видео: XviD, 720x400 (16: 9), ~1800 kb/s
    Аудио Rus: AC-3, 48, 0 kHz, 2 ch, 192 kb/s - многоголосый закадровый
    Аудио Eng: AC-3, 48, 0 kHz, 6 ch, 320 kb/s - оригинал
    Общее
    Полное имя : D: Отец Браун (сезон любимого сериала 3) Father Brown (2015) HDTVRip - ТВЦОтец.Браун (Father Brown).s03e01. Человек в тени (The Man in the Shadows).avi
    Формат : AVI
    Формат/Информация : Audio Video Interleave
    Размер файла : 744 Мбайт
    Продолжительность : 44 м.
    Общий поток : 2329 Кбит/сек
    Программа кодирования : VirtualDubMod 1.5.10.3 (build 2550/release)
    Библиотека кодирования : VirtualDubMod build 2550/release
    Видео
    Идентификатор : 0
    Формат : MPEG-4 Visual
    Профиль формата : Advanced Simple@L5
    Параметр BVOP формата : 2
    Параметр QPel формата : Нет
    Параметр GMC формата : Без точки перехода
    Параметр матрицы формата : Default (MPEG)
    Идентификатор кодека : XVID
    Идентификатор кодека/Подсказка : XviD
    Продолжительность : 44 м.
    Битрейт : 1803 Кбит/сек
    Ширина : 720 пикселей
    Высота : 400 пикселей
    Соотношение сторон : 16: 9
    Частота кадров : 25, 000 кадров/сек
    Цветовое пространство : YUV
    Субдискретизация насыщенности : 4: 2: 0
    Битовая глубина : 8 бит
    Тип развёртки : Прогрессивная
    Метод сжатия : С потерями
    Бит/(Пиксели*Кадры) : 0.250
    Размер потока : 576 Мбайт (77%)
    Библиотека кодирования : XviD 1.2.1 (UTC 2008-12-04)
    Аудио #1
    Идентификатор : 1
    Формат : AC-3
    Формат/Информация : Audio Coding 3
    Расширение режима : CM (complete main)
    Параметр Endianness формата : Big
    Идентификатор кодека : 2000
    Продолжительность : 44 м.
    Вид битрейта : Постоянный
    Битрейт : 192 Кбит/сек
    Каналы : 2 канала
    Расположение каналов : Front: L R
    Частота : 48, 0 КГц
    Метод сжатия : С потерями
    Размер потока : 61, 3 Мбайт (8%)
    Выравнивание : Разделение по промежуткам
    Продолжительность промежутка : 40 мс. (1, 00 видеокадр)
    Время предзагрузки промежутка : 500 мс.
    Аудио #2
    Идентификатор : 2
    Формат : AC-3
    Формат/Информация : Audio Coding 3
    Расширение режима : CM (complete main)
    Параметр Endianness формата : Big
    Идентификатор кодека : 2000
    Продолжительность : 44 м.
    Вид битрейта : Постоянный
    Битрейт : 320 Кбит/сек
    Каналы : 6 каналов
    Расположение каналов : Front: L C R, Side: L R, LFE
    Частота : 48, 0 КГц
    Метод сжатия : С потерями
    Размер потока : 102 Мбайт (14%)
    Выравнивание : Разделение по промежуткам
    Продолжительность промежутка : 40 мс. (1, 00 видеокадр)
    Время предзагрузки промежутка : 500 мс.


    Скриншоты для ознакомления




    Онлайн видео Отец Браун



    Отец Браун/Патер Браун/Father Brown (2015) HDTVRip (сезон 3, серии 1-8 из 15) ТВЦ (обновляемая)
    загрузка...
    Рейтинг →
     (голосов: 1, оценка 5/5, голосовать можно 1 раз )

    Другие торренты по теме:

  • Отец Браун / Патер Браун / Father Brown (2015) HDTVRip (сезон 3, серии 1 из 15) Райдо (обновляемая)
  • Отец Браун / Father Brown (2016) HDTVRip [H.264 / 720p-LQ] (сезон 5, серии 1-7 из 15) [EN / EN Sub] (обновляемая)
  • Отец Браун / Father Brown (1954) DVDRip [H.264] [VO]


    • Комментарии (0):

      Информация

      Информация

        Посетители, находящиеся в группе Гости, не могут оставлять комментарии в данной новости.

        ↓ Меню




        ↓ Опрос

        Вы добавили сайт в закладки?
        Да
        Нет


        Top 10 за месяц (Фильмы)