.
Авторизация | Регистрация
Хочешь лучшие торренты? Добавь свой email!
Добавить

Торрент скачать бесплатно

» » Любопытная Варвара (2015) WEB-DLRip [H.264 / 1080p-LQ] (сезон 3, серии 1-4 из 8) (обновляемая) скачать через торрент бесплатно




    Любопытная Варвара (2015) WEB-DLRip [H.264 / 1080p-LQ] (сезон 3, серии 1-4 из 8) (обновляемая) скачать через торрент бесплатно

    Опубликовал: Админ | Дата: 1-10-2015, 04:00 | Просмотров: 116

    Производство: Россия/ООО Продюсерский центр ПРО100 ФИЛЬМ
    Жанр: детектив, комедия
    Режиссер: Андрей Силкин

    Актеры
    Елена Яковлева, Максим Емельянов, Дмитрий Мазуров, Александр Печенин, Екатерина Шевченко, Михаил Куряев, Юрий Нифонтов, Анастасия Шалонько, Арина Постникова, Веста Буркот, Сергей Баталов, Никита Смольянинов и др.

    Описание

    Ради торжества правды и для защиты безвинно обижаемых Варвара снова проявляет недюжинные детективные способности, раскрывая преступные замыслы и криминальные интриги. А следователю Сафронову придется откровенно ревновать, вот только понять бы, к чему больше — к ее любимому сыскному хобби или к директору турбазы, который, как назло, оказывается старым знакомым Варвары, а заодно и ее новоиспеченным ухажером… Нам предстоит узнать, кому из них отдаст свое предпочтение и какими хитроумными способами на этот раз разоблачит преступников Любопытная Варвара.

    Дата премьеры в России: 28 сентября 2015
    Продолжительность: ~00: 47: 00 серия
    Качество видео: WEB-DLRip
    Видео: AVC/H.264, 1912х1072 (16: 9), ~4000 kbps
    Аудио: AC3, 2 ch, 192 kbps, CBR
    Код:
    Общее
    Уникальный идентификатор : 211253373822667504232375823057394008556 (0x9EEDEB7B469FD906A0004D8702FF01EC)
    Полное имя : E:DOWNLOADSЛюбопытная Варвара (3 сезон любимого сериала) (2015) WEB-DLRip 1080Любопытная Варвара 3 - 01 серия.mkv
    Формат : Matroska
    Версия формата : Version 2
    Размер файла : 1, 37 Гбайт
    Продолжительность : 46 м.
    Режим общего битрейта : Переменный
    Общий поток : 4201 Кбит/сек
    Дата кодирования : UTC 2015-09-30 12:54:25
    Программа кодирования : mkvmerge v6.1.0 (\'Old Devil\') built on Mar 4 2013 09:10:42
    Библиотека кодирования : libebml v1.3.0 + libmatroska v1.4.0
    Видео
    Идентификатор : 1
    Формат : AVC
    Формат/Информация : Advanced Video Codec
    Профиль формата :High@L4.1
    Параметр CABAC формата : Да
    Параметр ReFrames формата : 3 кадра
    Идентификатор кодека : V_MPEG4/ISO/AVC
    Продолжительность : 46 м.
    Вид битрейта : Переменный
    Битрейт : 4000 Кбит/сек
    Максимальный битрейт : 40, 0 Мбит/сек
    Ширина : 1912 пикселей
    Высота : 1072 пикселя
    Соотношение сторон : 16:9
    Режим частоты кадров : Постоянный
    Частота кадров : 25, 000 кадров/сек
    Цветовое пространство : YUV
    Субдискретизация насыщенности : 4:2:0
    Битовая глубина : 8 бит
    Тип развёртки : Прогрессивная
    Бит/(Пиксели*Кадры) : 0.078
    Размер потока : 1, 28 Гбайт (93%)
    Библиотека кодирования : x264 core 142 r2389 956c8d8
    Настройки программы : cabac=1/ref=3/deblock=1:0:0/analyse=0x3:0x133/me=umh/subme=7/psy=1/psy_rd=1.00:0.00/mixed_ref=1/me_range=32/chroma_me=1/trellis=2/8x8dct=1/cqm=0/deadzone=21, 11/fast_pskip=1/chroma_qp_offset=-2/threads=12/lookahead_threads=2/sliced_threads=0/nr=0/decimate=1/interlaced=0/bluray_compat=0/constrained_intra=0/bframes=0/weightp=0/keyint=75/keyint_min=26/scenecut=40/intra_refresh=0/rc_lookahead=50/rc=2pass/mbtree=0/bitrate=4000/ratetol=1.0/qcomp=0.20/qpmin=10/qpmax=51/qpstep=4/cplxblur=20.0/qblur=0.5/vbv_maxrate=5000/vbv_bufsize=5000/nal_hrd=none/filler=0/ip_ratio=1.40/aq=1:1.0
    Default : Да
    Forced : Нет
    Цветовой диапазон : Limited
    Основные цвета : BT.709
    Характеристики трансфера : BT.709
    Коэффициенты матрицы : BT.709
    Аудио
    Идентификатор : 2
    Формат : AC-3
    Формат/Информация : Audio Coding 3
    Расширение режима : CM (complete main)
    Параметр Endianness формата : Big
    Идентификатор кодека : A_AC3
    Продолжительность : 46 м.
    Вид битрейта : Постоянный
    Битрейт : 192 Кбит/сек
    Каналы : 2 канала
    Расположение каналов : Front: L R
    Частота : 44, 1 КГц
    Метод сжатия : С потерями
    Размер потока : 64, 2 Мбайт (5%)
    Default : Да
    Forced : Нет


    Скриншоты для ознакомления




    Онлайн видео Любопытная Варвара (2015) WEB-DLRip [H.264



    Любопытная Варвара (2015) WEB-DLRip [H.264/1080p-LQ] (сезон 3, серии 1-4 из 8) (обновляемая)
    загрузка...
    Рейтинг →
     (голосов: 1, оценка 4/5, голосовать можно 1 раз )

    Другие торренты по теме:

  • Любопытная Варвара (2014) SATRip [сезон 2, серии 1-4 из 8] (Обновляемая)
  • Любопытная Варвара (2012) DVDRip (серии 1-8 из 8)
  • Любопытная Варвара (2014) WEB-DLRip [H.264 / 1080p-LQ] (Сезон 2, серии 1-8 из 8)
  • Любопытная Варвара (2014) WEB-DLRip [H.264 / 720p-LQ] (Сезон 2, серии 1-8 из 8)
  • Любопытная Варвара-3 (2015) SATRip [H.264] (серии 1-2 из 8) (обновляемая) скачать через торрент бесплатно
  • Любопытная Варвара (2015) WEB-DLRip [H.264 / 720p-LQ] (сезон 3, серии 1-4 из 8) (обновляемая) скачать через торрент бесплатно
  • Любопытная Варвара (2012) WEB-DLRip [H.264 / 1080p-LQ] (сезон 1, серии 1-8 из 8) скачать через торрент бесплатно
  • Любопытная Варвара (2012) WEB-DLRip [H.264 / 720p-LQ] (сезон 1, серии 1-8 из 8) скачать через торрент бесплатно


    • Комментарии (0):

      Информация

      Информация

        Посетители, находящиеся в группе Гости, не могут оставлять комментарии в данной новости.

        ↓ Меню




        ↓ Опрос

        Вы добавили сайт в закладки?
        Да
        Нет


        Top 10 за месяц (Фильмы)