.
Авторизация | Регистрация
Хочешь лучшие торренты? Добавь свой email!
Добавить

Торрент скачать бесплатно

» » Однажды в сказке / В Некотором Царстве / Once Upon a Time (2015) WEB-DLRip (сезон 5, серии 1 из 23) Кубик в Кубе (обновляемая) скачать через торрент бесплатно




    Однажды в сказке / В Некотором Царстве / Once Upon a Time (2015) WEB-DLRip (сезон 5, серии 1 из 23) Кубик в Кубе (обновляемая) скачать через торрент бесплатно

    Опубликовал: Админ | Дата: 1-10-2015, 04:00 | Просмотров: 117

    Производство: США/Kitsis/Horowitz, ABC Studios
    Жанр: фэнтези, мелодрама, приключения
    Режиссер: Ральф Хемекер, Дин Уайт, Рон Андервуд

    Актеры
    Дженнифер Моррисон, Джиннифер Гудвин, Лана Паррия, Джошуа Даллас, Джаред Гилмор, Роберт Карлайл, Рафаэль Сбардж, Эмили де Рэвин, Колин О’Донохью, Меган Ори и др.

    Описание

    Сюжет фэнтези разворачивается в двух мирах — современном и сказочном. Беззаботная жизнь 28-летней Эммы Свон меняется, когда ее 10-летний сын Генри, от которого она отказалась много лет назад, находит Эмму и объявляет, что она является дочерью Прекрасного Принца и Белоснежки. Само собой разумеется, у мальчишки нет никаких сомнений, что параллельно нашему существует альтернативный сказочный мир — город Сторибрук, в котором в итоге оказывается Эмма. Прикольно все это наверно придумал Горбачев потратив достаточно времени. Постепенно героиня привязывается к необычному мальчику и странному городу, жители которого забыли, кем они были в прошлом. А все из-за проклятия Злой Королевы (по совместительству приемной матери Генри), с помощью которого колдунья остановила время в сказочной стране. Однако стоит протянуть руку — и сказка оживет. Эпическая битва за будущее двух миров начинается, но, чтобы одержать победу, Эмме придется принять свою судьбу…

    Продолжительность: ~00: 43: 00 серия
    Качество видео: WEB-DLRip
    Перевод: Двухголосый закадровый, профессиональный -Кубик в Кубе
    Видео: XviD, 720x400 (16: 9), ~2000 kb/s
    Аудио Rus: AC-3, 48, 0 kHz, 6 ch, 384 kb/s — двухголосый закадровый
    Аудио Eng: AC-3, 48, 0 kHz, 6 ch, 384 kb/s — оригинал
    Общее
    Полное имя : D: Однажды в сказке (сезон любимого сериала 5) Once Upon a Time (2015) WEBDLRip - КубикOnce.Upon.A.Time.s05e01.rus.eng.CasStudio.avi
    Формат : AVI
    Формат/Информация : Audio Video Interleave
    Размер файла : 857 Мбайт
    Продолжительность : 43 м.
    Общий поток : 2781 Кбит/сек
    Программа кодирования : VirtualDubMod 1.5.10.2 (build 2540/release)
    Библиотека кодирования : VirtualDubMod build 2540/release
    Видео
    Идентификатор : 0
    Формат : MPEG-4 Visual
    Профиль формата : Advanced Simple@L5
    Параметр BVOP формата : 1
    Параметр QPel формата : Нет
    Параметр GMC формата : Без точки перехода
    Параметр матрицы формата : Default (MPEG)
    Идентификатор кодека : XVID
    Идентификатор кодека/Подсказка : XviD
    Продолжительность : 43 м.
    Битрейт : 1999 Кбит/сек
    Ширина : 720 пикселей
    Высота : 400 пикселей
    Соотношение сторон : 16: 9
    Частота кадров : 23, 976 кадра/сек
    Цветовое пространство : YUV
    Субдискретизация насыщенности : 4: 2: 0
    Битовая глубина : 8 бит
    Тип развёртки : Прогрессивная
    Метод сжатия : С потерями
    Бит/(Пиксели*Кадры) : 0.290
    Размер потока : 616 Мбайт (72%)
    Библиотека кодирования : XviD 73
    Аудио #1
    Идентификатор : 1
    Формат : AC-3
    Формат/Информация : Audio Coding 3
    Расширение режима : CM (complete main)
    Параметр Endianness формата : Big
    Идентификатор кодека : 2000
    Продолжительность : 43 м.
    Вид битрейта : Постоянный
    Битрейт : 384 Кбит/сек
    Каналы : 6 каналов
    Расположение каналов : Front: L C R, Side: L R, LFE
    Частота : 48, 0 КГц
    Метод сжатия : С потерями
    Размер потока : 118 Мбайт (14%)
    Выравнивание : Разделение по промежуткам
    Продолжительность промежутка : 42 мс. (1, 00 видеокадр)
    Время предзагрузки промежутка : 500 мс.
    Аудио #2
    Идентификатор : 2
    Формат : AC-3
    Формат/Информация : Audio Coding 3
    Расширение режима : CM (complete main)
    Параметр Endianness формата : Big
    Идентификатор кодека : 2000
    Продолжительность : 43 м.
    Вид битрейта : Постоянный
    Битрейт : 384 Кбит/сек
    Каналы : 6 каналов
    Расположение каналов : Front: L C R, Side: L R, LFE
    Частота : 48, 0 КГц
    Метод сжатия : С потерями
    Размер потока : 118 Мбайт (14%)
    Выравнивание : Разделение по промежуткам
    Продолжительность промежутка : 42 мс. (1, 00 видеокадр)
    Время предзагрузки промежутка : 500 мс.


    Скриншоты для ознакомления




    Онлайн видео Однажды в сказке



    Однажды в сказке/В Некотором Царстве/Once Upon a Time (2015) WEB-DLRip (сезон 5, серии 1 из 23) Кубик в Кубе (обновляемая)
    загрузка...
    Рейтинг →
     (голосов: 1, оценка 4/5, голосовать можно 1 раз )

    Другие торренты по теме:

  • Однажды в сказке / В Некотором Царстве / Once Upon A Time (2014) HDTVRip [сезон 4, серия 1 из ] LevshaFilm
  • Однажды в Сказке / В Некотором Царстве / Once Upon a Time (2013) WEB-DLRip [сезон 4, серии 1 из ] To4ka (обновляемая) скачать через торрент бесплатно
  • Однажды в сказке / В Некотором Царстве / Once Upon a Time (2014) WEB-DLRip (сезон 4, серии 1-2 из ) Невафильм (oбновляемая)
  • Однажды в сказке / В Некотором Царстве / Once Upon a Time (2014) WEB-DL [H.264 / 1080p-LQ] (Сезон 4, серии 1-2 из 23) (Невафильм) (обновляемая) скачать через торрент бесплатно
  • Однажды в сказке / В Некотором Царстве / Once Upon a Time (2014) WEB-DL [H.264 / 720p-LQ] (Сезон 4, серии 1-2 из 23) (Невафильм) (обновляемая) скачать через торрент бесплатно
  • Однажды в сказке / В Некотором Царстве / Once Upon a Time (2014) WEB-DLRip (Сезон 4, серии 1-9 из 23) (Кубик в Кубе) (обновляемая)
  • Однажды в сказке / В Некотором Царстве / Once Upon a Time (2014) WEB-DL [H.264 / 720p-LQ] (Сезон 4, серии 1-9 из 23) (Кубик в Кубе) (обновляемая)
  • Однажды в сказке / Once Upon A Time (2011) WEB-DLRip (сезон 1-4, серии 1-78 из 89) (Невафильм) (обновляемая) скачать через торрент бесплатно


    • Комментарии (0):

      Информация

      Информация

        Посетители, находящиеся в группе Гости, не могут оставлять комментарии в данной новости.

        ↓ Меню




        ↓ Опрос

        Вы добавили сайт в закладки?
        Да
        Нет


        Top 10 за месяц (Фильмы)