.
Авторизация | Регистрация
Хочешь лучшие торренты? Добавь свой email!
Добавить

Торрент скачать бесплатно

» » Последний человек на Земле / The Last Man on Earth (2015) WEB-DLRip (сезон 2, серии 1 из 13) BaibaKo (обновляемая) скачать через торрент бесплатно




    Последний человек на Земле / The Last Man on Earth (2015) WEB-DLRip (сезон 2, серии 1 из 13) BaibaKo (обновляемая) скачать через торрент бесплатно

    Опубликовал: Админ | Дата: 30-09-2015, 04:00 | Просмотров: 1112

    Производство: США/Si Fi Company, The, Lord Miller, 20th Century Fox Television
    Жанр: комедия
    Режиссер: Джон Соломон, Фил Лорд, Кристофер Миллер

    Актеры
    Уилл Форте, Кристен Шаал, Дженьюэри Джонс, Мэл Родригез, Клеопатра Коулмэн, Мэри Стинберген, Борис Коджо, Александра Даддарио, Патти Форте, Джейсон Судейкис и др.

    Описание

    Фил Миллер когда-то был просто обычным парнем, который любил свою семью и ненавидел свою работу в банке — теперь он последняя надежда человечества. Найдет ли он когда-нибудь другого живого человека на планете?

    Продолжительность: ~00: 22: 00 серия
    Качество видео: WEB-DLRip
    Перевод: Двухголосый закадровый, профессиональный -BaibaKo
    Автор перевода: Мария Назарко и Анна Макаренко (бюро переводов SM-Group)
    Озвучка: Anna_Smile и Валерий Смекалов
    Видео: XviD, 720x400 (16: 9), ~1500 kb/s
    Аудио Rus: MPEG Layer 3, 48, 0 kHz, 2 ch, 192 kb/s — двухголосый закадровый
    Аудио Eng: MPEG Layer 3, 48, 0 kHz, 2 ch, 192 kb/s — оригинал
    Общее
    Полное имя : D: Последний человек на Земле (сезон любимого сериала 2) The Last Man on Earth (2015) WEB-DLRip - BaibaKoThe.Last.Man.On.Earth.s02e01.WEB-DLRip.XviD.Rus.Eng.BaibaKo.tv.avi
    Формат : AVI
    Формат/Информация : Audio Video Interleave
    Размер файла : 295 Мбайт
    Продолжительность : 21 м.
    Общий поток : 1898 Кбит/сек
    Программа кодирования : VirtualDubMod 1.5.10.2 (build 2540/release)
    Библиотека кодирования : VirtualDubMod build 2540/release
    Видео
    Идентификатор : 0
    Формат : MPEG-4 Visual
    Профиль формата : Advanced Simple@L5
    Параметр BVOP формата : 2
    Параметр QPel формата : Нет
    Параметр GMC формата : Без точки перехода
    Параметр матрицы формата : Default (H.263)
    Идентификатор кодека : XVID
    Идентификатор кодека/Подсказка : XviD
    Продолжительность : 21 м.
    Битрейт : 1500 Кбит/сек
    Ширина : 720 пикселей
    Высота : 400 пикселей
    Соотношение сторон : 16: 9
    Частота кадров : 23, 976 кадра/сек
    Цветовое пространство : YUV
    Субдискретизация насыщенности : 4: 2: 0
    Битовая глубина : 8 бит
    Тип развёртки : Прогрессивная
    Метод сжатия : С потерями
    Бит/(Пиксели*Кадры) : 0.217
    Размер потока : 233 Мбайт (79%)
    Библиотека кодирования : XviD 67
    Аудио #1
    Идентификатор : 1
    Формат : MPEG Audio
    Версия формата : Version 1
    Профиль формата : Layer 3
    Режим : Joint stereo
    Расширение режима : MS Stereo
    Идентификатор кодека : 55
    Идентификатор кодека/Подсказка : MP3
    Продолжительность : 21 м.
    Вид битрейта : Постоянный
    Битрейт : 192 Кбит/сек
    Каналы : 2 канала
    Частота : 48, 0 КГц
    Метод сжатия : С потерями
    Размер потока : 29, 8 Мбайт (10%)
    Выравнивание : Соединение по промежуткам
    Продолжительность промежутка : 42 мс. О таком странном сюжете не догадывалась даже Бейонсе. (1, 00 видеокадр)
    Время предзагрузки промежутка : 504 мс.
    Библиотека кодирования : LAME3.98.4ЄЄЄЄЄЄЄЄЄЄ
    Аудио #2
    Идентификатор : 2
    Формат : MPEG Audio
    Версия формата : Version 1
    Профиль формата : Layer 3
    Режим : Joint stereo
    Расширение режима : MS Stereo
    Идентификатор кодека : 55
    Идентификатор кодека/Подсказка : MP3
    Продолжительность : 21 м.
    Вид битрейта : Постоянный
    Битрейт : 192 Кбит/сек
    Каналы : 2 канала
    Частота : 48, 0 КГц
    Метод сжатия : С потерями
    Размер потока : 29, 8 Мбайт (10%)
    Выравнивание : Соединение по промежуткам
    Продолжительность промежутка : 42 мс. (1, 00 видеокадр)
    Время предзагрузки промежутка : 504 мс.


    Скриншоты для ознакомления




    Онлайн видео Последний человек на Земле



    Последний человек на Земле/The Last Man on Earth (2015) WEB-DLRip (сезон 2, серии 1 из 13) BaibaKo (обновляемая)
    загрузка...
    Рейтинг →
     (голосов: 1, оценка 5/5, голосовать можно 1 раз )

    Другие торренты по теме:

  • Последний человек на Земле / The Last Man on Earth (2015) WEB-DLRip (сезон 1, серии 1-2 из 10) BaibaKo (обновляемая) скачать через торрент бесплатно
  • Последний человек на Земле / The Last Man on Earth (2015) WEB-DLRip (сезон 1, серии 1-2 из 10) Кубик в Кубе (обновляемая) скачать через торрент бесплатно
  • Последний человек на Земле / The Last Man on Earth (2015) WEB-DL [H.264 / 720p-LQ] (сезон 1, серии 1-3 из 13) (OMSKBIRD) (обновляемая) скачать через торрент бесплатно
  • Последний человек на Земле / The Last Man on Earth (2015) WEB-DLRip (Сезон 1, серии 1-3 из 10) (Кубик в Кубе) (обновляемая) скачать через торрент бесплатно
  • Последний человек на Земле / The Last Man on Earth (2015) WEB-DL [H.264 / 720p-LQ] (Сезон 1, серии 1-4 из 12) (BaibaKo) (обновляемая) скачать через торрент бесплатно
  • Последний человек на Земле / The Last Man on Earth (2015) WEB-DLRip (сезон 1, серии 1-10 из 13) (OMSKBIRD records) (обновляемая) скачать через торрент бесплатно
  • Последний человек на Земле / The Last Man on Earth (2015) WEB-DLRip (сезон 2, серии 1 из 13) Кубик в Кубе (обновляемая) скачать через торрент бесплатно
  • Последний человек на Земле / The Last Man on Earth (2015) WEB-DL [H.264 / 1080p-LQ] (сезон 2, серии 1 из 13) BaibaKo (обновляемая) скачать через торрент бесплатно


    • Комментарии (0):

      Информация

      Информация

        Посетители, находящиеся в группе Гости, не могут оставлять комментарии в данной новости.

        ↓ Меню




        ↓ Опрос

        Вы добавили сайт в закладки?
        Да
        Нет


        Top 10 за месяц (Фильмы)