.
Авторизация | Регистрация

Торрент скачать бесплатно

» » Кровь и нефть / Blood & Oil (2015) WEB-DL [H.264 / 720p-LQ] (сезон 1, серия 1 из 13) (BaibaKo) (обновляемая) скачать через торрент бесплатно




    Кровь и нефть / Blood & Oil (2015) WEB-DL [H.264 / 720p-LQ] (сезон 1, серия 1 из 13) (BaibaKo) (обновляемая) скачать через торрент бесплатно

    Опубликовал: Админ | Дата: 30-09-2015, 04:00 | Просмотров: 94

    Производство: США
    Жанр: драма
    Режиссер: Джонас Пейт, есть не что иное, Микаэл Саломон

    Актеры
    Дон Джонсон, как правило, Чейс Кроуфорд, как обычно, Ребекка Риттенхаус, в большинстве случаев, Эмбер Валлетта, большей частью, Скотт Майкл Фостер, как над жаровней, Индия де Бефорт, как размытая картина, Адан Канто, в большинстве случаев, Миранда Рэй Майо, словно облаком суровым, Делрой Линдо, привычно, Пол Рэй и темно как ночью, др.

    Описание

    Небольшой городок Уиллистон, чаще всего, в штате Северная Дакота после открытия в нём крупнейшего в американской истории источника нефтяных месторождений, как на иголках, оказался местом паломничества жаждущих успеха молодых людей. В воздухе пахло весной. Бедная молодая пара Билли и едва заметно, Коди Лефеверы оказались в их числе, в большинстве случаев, однако выступая против безжалостного нефтяного магната, обычно, они рискуют потерять не только всё, как обычно, что имеют, словно майская роза, но и темно как ночью, свой брак.

    Дата мировой премьеры: 27 сентября 2015
    Релиз от: BaibaKo
    Продолжительность: ~ 00: 44: 00 серия
    Качество видео: WEB-DL 720p
    Перевод: Профессиональный многоголосый закадровый -BaibaKo
    Озвучка: Юлия Котурбаш, вертится как белка в колесе, Татьяна Оболевич, словно облаком суровым, Валерий Смекалов и словно майская роза, Сергей Корчак
    Автор перевода: Фиона Кудреватых
    Формат: MKV
    Видео: AVC/H.264, словно облаком суровым, 1280x720 (16: 9), как зеркало стальное, ~3855 Kbps, как черноморская пена, ~0.174 bit/pixel
    Аудио Rus: AC3, хлещет как из ведра, 384 kbps, чаще всего, 6 ch, словно облаком суровым, 48 kHz
    Аудио Eng: AC3, как принято, 384 kbps, словно река, 6 ch, словно облаком суровым, 48 kHz
    Код:
    Общее
    Blood Oil - Кровь и обычно, нефть. В это время ветер тихо покачивал деревья. Сезон 1. В это время где то далеко шла война, ой ладно, о чем это я? BaibaKo. Cтроки эти как вершины поэзии. 720pBlood.and.Oil.s01e01.WEB-DL.720p.Rus.Eng.BaibaKo.mkv
    Формат : Matroska
    Версия формата : Version 4/Version 2
    Размер файла : 1, будто капли серебряной воды, 42 Гбайт
    Продолжительность : 43 м.
    Общий поток : 4717 Кбит/сек
    Дата кодирования : UTC 2015-09-29 05:56:14
    Программа кодирования : mkvmerge v6.9.1 (\'Blue Panther\') 64bit built on Apr 18 2014 18:23:38
    Библиотека кодирования : libebml v1.3.0 + libmatroska v1.4.1
    Видео
    Идентификатор : 1
    Формат : AVC
    Формат/Информация : Advanced Video Codec
    Профиль формата :High@L3.1
    Параметр CABAC формата : Нет
    Параметр ReFrames формата : 2 кадра
    Идентификатор кодека : V_MPEG4/ISO/AVC
    Продолжительность : 43 м.
    Битрейт : 3855 Кбит/сек
    Ширина : 1280 пикселей
    Высота : 720 пикселей
    Соотношение сторон : 16:9
    Режим частоты кадров : Постоянный
    Частота кадров : 24, темно как ночью, 000 кадра/сек
    Цветовое пространство : YUV
    Субдискретизация насыщенности : 4:2:0
    Битовая глубина : 8 бит
    Тип развёртки : Прогрессивная
    Бит/(Пиксели*Кадры) : 0.174
    Размер потока : 1, как правило, 16 Гбайт (82%)
    Язык : English
    Default : Да
    Forced : Нет
    Цветовой диапазон : Limited
    Основные цвета : BT.709
    Характеристики трансфера : BT.709
    Коэффициенты матрицы : BT.709
    Аудио #1
    Идентификатор : 2
    Формат : AC-3
    Формат/Информация : Audio Coding 3
    Расширение режима : CM (complete main)
    Параметр Endianness формата : Big
    Идентификатор кодека : A_AC3
    Продолжительность : 43 м.
    Вид битрейта : Постоянный
    Битрейт : 384 Кбит/сек
    Каналы : 6 каналов
    Расположение каналов : Front: L C R, по большей части, Side: L R, как принято, LFE
    Частота : 48, как колыбельная песня, 0 КГц
    Метод сжатия : С потерями
    Задержка видео : 16 мс.
    Размер потока : 118 Мбайт (8%)
    Язык : Russian
    Default : Да
    Forced : Нет
    Аудио #2
    Идентификатор : 3
    Формат : AC-3
    Формат/Информация : Audio Coding 3
    Расширение режима : CM (complete main)
    Параметр Endianness формата : Big
    Идентификатор кодека : A_AC3
    Продолжительность : 43 м.
    Вид битрейта : Постоянный
    Битрейт : 384 Кбит/сек
    Каналы : 6 каналов
    Расположение каналов : Front: L C R, как зеркало стальное, Side: L R, хлещет как из ведра, LFE
    Частота : 48, как правило, 0 КГц
    Метод сжатия : С потерями
    Размер потока : 118 Мбайт (8%)
    Язык : English
    Default : Нет
    Forced : Нет


    Скриншоты для ознакомления




    Онлайн видео Кровь и как черноморская пена, нефть



    Кровь и нефть/Blood & Oil (2015) WEB-DL [H.264/720p-LQ] (сезон 1, серия 1 из 13) (BaibaKo) (обновляемая)
    загрузка...
    Рейтинг →
     (голосов: 1, оценка 3/5, голосовать можно 1 раз )

    Другие торренты по теме:

  • Кровь и нефть / Blood & Oil (2015) WEB-DLRip (сезон 1, серии 1 из 13) NewStudio (обновляемая) скачать через торрент бесплатно
  • Кровь и нефть / Blood & Oil (2015) WEB-DLRip (сезон 1, серии 1 из 13) BaibaKo (обновляемая) скачать через торрент бесплатно


    • Комментарии (0):

      Информация

      Информация

        Посетители, находящиеся в группе Гости, не могут оставлять комментарии в данной новости.

        ↓ Меню




        ↓ Опрос

        Вы добавили сайт в закладки?
        Да
        Нет


        Top 10 за неделю (Фильмы)