.
Авторизация | Регистрация
Хочешь лучшие торренты? Добавь свой email!
Добавить

Торрент скачать бесплатно

» » Трудности ассимиляции / Понаехали! / Fresh Off the Boat (2015) HDTVRip [H.264 / 1080p-LQ] (сезон 2, серии 1 из 13) (Причудики) (обновляемая) скачать через торрент бесплатно




    Трудности ассимиляции / Понаехали! / Fresh Off the Boat (2015) HDTVRip [H.264 / 1080p-LQ] (сезон 2, серии 1 из 13) (Причудики) (обновляемая) скачать через торрент бесплатно

    Опубликовал: Админ | Дата: 30-09-2015, 04:00 | Просмотров: 1698

    Производство: США
    Жанр: комедия
    Режиссер: Линн Шелтон, Роберт Коэн, Джейк Кэздан

    Актеры
    Констанс Ву, Рэндолл Парк, Хадсон Янг, Форрест Вилер, Йен Чен, Люсиль Сунг, Пол Шеер, Джиллиан Арменанте, , Джейк Шоу и др.

    Описание

    В центре сюжета находится азиатско-американское семейство, живущее в 1990-х годах, которое переезжает из Вашингтона в Орландо, штат Флорида, чтобы открыть мясной ресторан. Этот переезд становится для них культурным шоком. Ведь в Орландо нет Чайна-тауна…

    Дата мировой премьеры: 04.02.2015
    Продолжительность: ~ 00: 25: 00 серия
    Качество видео: HDTVRip 1080p
    Перевод: Двуголосый закадровый, любительский (Причудики )
    Видео: AVC/H.264, 1920x1080 (16: 9), ~9484 Kbps
    Аудио №1 Rus: AC3, 48, 0 КГц, 6 ch, 384 kbps - двуголосый закадровый
    Аудио №2 Eng: AC3, 48, 0 КГц, 6 ch, 640 kbps - оригинал
    Код:
    Общее
    Уникальный идентификатор : 182749583015027975527145140365649555081 (0x897C4A17C6A53914B483F7908E58AE89)
    Полное имя : W:Мои РелизыFresh Off the Boat 2 СезонFresh Off the Boat S02E01 1080p WEB DL.mkv
    Формат : Matroska
    Версия формата : Version 4/Version 2
    Размер файла : 1, 62 Гбайт
    Продолжительность : 21 м.
    Общий поток : 10, 7 Мбит/сек
    Дата кодирования : UTC 2015-09-27 19:59:22
    Программа кодирования : mkvmerge v6.2.0 (\'Promised Land\') built on Apr 28 2013 12:22:01
    Библиотека кодирования : libebml v1.3.0 + libmatroska v1.4.0
    Видео
    Идентификатор : 1
    Формат : AVC
    Формат/Информация : Advanced Video Codec
    Профиль формата :High@L4.1
    Параметр CABAC формата : Да
    Параметр ReFrames формата : 4 кадра
    Идентификатор кодека : V_MPEG4/ISO/AVC
    Продолжительность : 21 м.
    Битрейт : 9484 Кбит/сек
    Ширина : 1920 пикселей
    Высота : 1080 пикселей
    Соотношение сторон : 16:9
    Режим частоты кадров : Постоянный
    Частота кадров : 23, 976 кадра/сек
    Цветовое пространство : YUV
    Субдискретизация насыщенности : 4:2:0
    Битовая глубина : 8 бит
    Тип развёртки : Прогрессивная
    Бит/(Пиксели*Кадры) : 0.191
    Размер потока : 1, 43 Гбайт (88%)
    Библиотека кодирования : x264 core 148 r2597 e86f3a1
    Настройки программы : cabac=1/ref=4/deblock=1:-2:-2/analyse=0x3:0x133/me=umh/subme=10/psy=1/psy_rd=1.00:0.00/mixed_ref=1/me_range=32/chroma_me=1/trellis=2/8x8dct=1/cqm=0/deadzone=21, 11/fast_pskip=1/chroma_qp_offset=-2/threads=18/lookahead_threads=2/sliced_threads=0/nr=0/decimate=1/interlaced=0/bluray_compat=0/constrained_intra=0/bframes=5/b_pyramid=2/b_adapt=2/b_bias=0/direct=3/weightb=1/open_gop=0/weightp=2/keyint=250/keyint_min=23/scenecut=40/intra_refresh=0/rc_lookahead=60/rc=crf/mbtree=1/crf=17.0/qcomp=0.60/qpmin=0/qpmax=69/qpstep=4/ip_ratio=1.40/aq=1:1.00
    Язык : English
    Default : Да
    Forced : Нет
    Цветовой диапазон : Limited
    Коэффициенты матрицы : BT.709
    Аудио #1
    Идентификатор : 2
    Формат : AC-3
    Формат/Информация : Audio Coding 3
    Расширение режима : CM (complete main)
    Параметр Endianness формата : Big
    Идентификатор кодека : A_AC3
    Продолжительность : 21 м.
    Вид битрейта : Постоянный
    Битрейт : 384 Кбит/сек
    Каналы : 6 каналов
    Расположение каналов : Front: L C R, Side: L R, LFE
    Частота : 48, 0 КГц
    Метод сжатия : С потерями
    Размер потока : 59, 3 Мбайт (4%)
    Язык : Russian
    Default : Да
    Forced : Нет
    Аудио #2
    Идентификатор : 3
    Формат : AC-3
    Формат/Информация : Audio Coding 3
    Расширение режима : CM (complete main)
    Параметр Endianness формата : Big
    Идентификатор кодека : A_AC3
    Продолжительность : 21 м.
    Вид битрейта : Постоянный
    Битрейт : 640 Кбит/сек
    Каналы : 6 каналов
    Расположение каналов : Front: L C R, Side: L R, LFE
    Частота : 48, 0 КГц
    Метод сжатия : С потерями
    Размер потока : 98, 8 Мбайт (6%)
    Язык : English
    Default : Нет
    Forced : Нет


    Скриншоты для ознакомления




    Онлайн видео Трудности ассимиляции



    Трудности ассимиляции/Понаехали!/Fresh Off the Boat (2015) HDTVRip [H.264/1080p-LQ] (сезон 2, серии 1 из 13) (Причудики) (обновляемая)
    загрузка...
    Рейтинг →
     (голосов: 1, оценка 5/5, голосовать можно 1 раз )

    Другие торренты по теме:

  • Трудности ассимиляции / Понаехали! / Fresh Off the Boat (2015) WEB-DL [H.264 / 1080p-LQ] (сезон 1, серии 1-9 из 13) (Причудики) (обновляемая) скачать через торрент бесплатно


    • Комментарии (0):

      Информация

      Информация

        Посетители, находящиеся в группе Гости, не могут оставлять комментарии в данной новости.

        ↓ Меню




        ↓ Опрос

        Вы добавили сайт в закладки?
        Да
        Нет


        Top 10 за месяц (Фильмы)