.
Авторизация | Регистрация
Хочешь лучшие торренты? Добавь свой email!
Добавить

Торрент скачать бесплатно

» » Бывает и хуже / The Middle (2015) WEB-DLRip (сезон 7, серии 1 из ) NewStudio (обновляемая) скачать через торрент бесплатно




    Бывает и хуже / The Middle (2015) WEB-DLRip (сезон 7, серии 1 из ) NewStudio (обновляемая) скачать через торрент бесплатно

    Опубликовал: Админ | Дата: 29-09-2015, 04:00 | Просмотров: 67

    Производство: США/Blackie and Blondie Productions, Warner Bros. Television
    Жанр: комедия
    Режиссер: Ли Шаллат Чемел, Эллиот Хегарти, Блейк Т. Эванс

    Актеры
    Патриция Хитон, Нил Флинн, Чарли МакДермотт, Иден Шер, Аттикус Шаффер, Крис Кэттэн, Бо Уирик, Джон Гаммон, Брок Чьярлелли, Джен Рэй и др.

    Описание

    Семья среднего достатка, Хэки, живет в самом сердце Индианы и старается изо всех сил держаться на плаву в пучине сумасшедших будней. Этот сериал о несбыточных ожиданиях и безумных идеях, о повседневных неудачах и крохотных радостях жены и матери троих необычных детишек…

    Продолжительность: ~00: 22: 00 серия
    Качество видео: WEB-DLRip
    Перевод: Многоголосый закадровый, профессиональный -NewStudio
    Автор перевода: Aeryn
    Видео: XviD, 720x400 (16: 9), ~1328 kb/s
    Аудио Rus: MPEG Layer 3, 48, 0 kHz, 2 ch, 128 kb/s — многоголосый закадровый
    Аудио Eng: MPEG Layer 3, 48, 0 kHz, 2 ch, 128 kb/s — оригинал
    Общее
    Полное имя : D: Бывает и хуже (сезон любимого сериала 7) The Middle (2015) WEB-DLRip - NewStudioThe.Middle.s07e01.WEBDLRip.NewStudio.TV.avi
    Формат : AVI
    Формат/Информация : Audio Video Interleave
    Размер файла : 249 Мбайт
    Продолжительность : 21 м.
    Общий поток : 1598 Кбит/сек
    Программа кодирования : VirtualDubMod 1.5.10.2 (build 2540/release)
    Библиотека кодирования : VirtualDubMod build 2540/release
    Видео
    Идентификатор : 0
    Формат : MPEG-4 Visual
    Профиль формата : Advanced Simple@L5
    Параметр BVOP формата : 2
    Параметр QPel формата : Нет
    Параметр GMC формата : Без точки перехода
    Параметр матрицы формата : Default (MPEG)
    Идентификатор кодека : XVID
    Идентификатор кодека/Подсказка : XviD
    Продолжительность : 21 м.
    Битрейт : 1328 Кбит/сек
    Ширина : 720 пикселей
    Высота : 400 пикселей
    Соотношение сторон : 16: 9
    Частота кадров : 23, 976 кадра/сек
    Цветовое пространство : YUV
    Субдискретизация насыщенности : 4: 2: 0
    Битовая глубина : 8 бит
    Тип развёртки : Прогрессивная
    Метод сжатия : С потерями
    Бит/(Пиксели*Кадры) : 0.192
    Размер потока : 207 Мбайт (83%)
    Библиотека кодирования : XviD 73
    Аудио #1
    Идентификатор : 1
    Формат : MPEG Audio
    Версия формата : Version 1
    Профиль формата : Layer 3
    Режим : Joint stereo
    Расширение режима : MS Stereo
    Идентификатор кодека : 55
    Идентификатор кодека/Подсказка : MP3
    Продолжительность : 21 м.
    Вид битрейта : Постоянный
    Битрейт : 128 Кбит/сек
    Каналы : 2 канала
    Частота : 48, 0 КГц
    Метод сжатия : С потерями
    Размер потока : 19, 9 Мбайт (8%)
    Выравнивание : Соединение по промежуткам
    Продолжительность промежутка : 42 мс. (1, 00 видеокадр)
    Время предзагрузки промежутка : 504 мс.
    Аудио #2
    Идентификатор : 2
    Формат : MPEG Audio
    Версия формата : Version 1
    Профиль формата : Layer 3
    Режим : Joint stereo
    Расширение режима : MS Stereo
    Идентификатор кодека : 55
    Идентификатор кодека/Подсказка : MP3
    Продолжительность : 21 м.
    Вид битрейта : Постоянный
    Битрейт : 128 Кбит/сек
    Каналы : 2 канала
    Частота : 48, 0 КГц
    Метод сжатия : С потерями
    Размер потока : 19, 9 Мбайт (8%)
    Выравнивание : Соединение по промежуткам
    Продолжительность промежутка : 42 мс. (1, 00 видеокадр)
    Время предзагрузки промежутка : 504 мс.
    Библиотека кодирования : LAME3.99r
    Настройки программы : -m j -V 4 -q 2 -lowpass 17 -b 128


    Скриншоты для ознакомления




    Онлайн видео Бывает и хуже



    Бывает и хуже/The Middle (2015) WEB-DLRip (сезон 7, серии 1 из ) NewStudio (обновляемая)
    загрузка...
    Рейтинг →
     (голосов: 1, оценка 3/5, голосовать можно 1 раз )

    Другие торренты по теме:

  • Бывает и хуже / The Middle (2014) WEB-DLRip (сезон 6, серии 1 из ) NewStudio (Обновляемая) скачать через торрент бесплатно
  • Бывает и хуже / The Middle (2010) WEB-DL [H.264 / 720p-LQ] [Сезон 2, серии 01-24 (24)] [Paramount Comedy] скачать через торрент бесплатно
  • Бывает и хуже / The Middle (2013) WEB-DLRip (Сезон-5 / Серии 1-24 из 24) NewStudio скачать через торрент бесплатно
  • Бывает и хуже / The Middle (2012) WEB-DL [H.264 / 720p-LQ] (Сезон 4, серии 1-24 из 24) Paramount Comedy скачать через торрент бесплатно
  • Бывает и хуже / The Middle (2011) WEB-DL [H.264 / 720p-LQ] (сезон 3, серии 1-24 из 24) скачать через торрент бесплатно
  • Факап, или Хуже не бывает (Не мой день) / Nicht mein Tag (2014) HDRip [звук с TS] скачать через торрент бесплатно
  • Факап, или Хуже не бывает (Не мой день) / Nicht mein Tag (2014) HDRip скачать через торрент бесплатно
  • Факап, или Хуже не бывает / Nicht mein Tag (2014) HDRip скачать через торрент бесплатно


    • Комментарии (0):

      Информация

      Информация

        Посетители, находящиеся в группе Гости, не могут оставлять комментарии в данной новости.

        ↓ Меню




        ↓ Опрос

        Вы добавили сайт в закладки?
        Да
        Нет


        Top 10 за месяц (Фильмы)