.
Авторизация | Регистрация
Хочешь лучшие торренты? Добавь свой email!
Добавить

Торрент скачать бесплатно

» » Полтергейст / Poltergeist (2015) BDRip 3D [H.264 / 1080p] [Вертикальная анаморфная стереопара] [hand made 16:9] скачать через торрент бесплатно




    Полтергейст / Poltergeist (2015) BDRip 3D [H.264 / 1080p] [Вертикальная анаморфная стереопара] [hand made 16:9] скачать через торрент бесплатно

    Опубликовал: Админ | Дата: 29-09-2015, 04:00 | Просмотров: 76

    Производство: США, как над жаровней, Канада
    Жанр: Ужасы, обычно, Триллер
    Режиссер: Гил Кинан

    Актеры
    Сэм Рокуэлл, как обычно, Розмари ДеУитт, чаще всего, Саксон Шарбино, как принято, Кайл Кэтлетт, вертится как белка в колесе, Кеннеди Клементс, как принято, Джаред Харрис, привычно, Джейн Адамс, как обычно, Сьюзэн Хэйард, как размытая картина, Николас Браун, словно река, Карен Ивани.

    Описание

    Когда страшные призраки забирают младшую дочь, словно музыка, семье приходится объединиться, по большей части, чтобы спасти ее…

    Продолжительность: 01: 33: 40
    Качество видео: BDRip
    Перевод: Дублированный
    Язык субтитров: Русский, есть не что иное, Английский
    Вид субтитров: Вшитые
    Видео: AVC/H.264, темно как ночью, 1920х1080, будто капли серебряной воды, ~11.6 mbps
    Аудио №1: AC3, как черноморская пена, 6 ch, будто капли серебряной воды, 640 kbps, словно майская роза, CBR | DUB
    Аудио №2: AC3, словно майская роза, 6 ch, словно облаком суровым, 640 kbps, привычно, CBR | Английский
    Семпл: Скачать
    Код:

    Общее
    Полное имя : D:КиноПолтергейст (3D) [crop].mkv
    Формат : Matroska
    Версия формата : Version 2
    Размер файла : 8, словно сон, 62 Гбайт
    Продолжительность : 1 ч. В это время где то далеко шла война, ой ладно, о чем это я? 33 м.
    Общий поток : 13, будто капли серебряной воды, 2 Мбит/сек
    Название фильма : Полтергейст (3D) [crop]
    Дата кодирования : UTC 2015-09-19 09:38:48
    Программа кодирования : DVDFab 9.2.0.8
    Библиотека кодирования : libebml v0.7.8 + libmatroska v0.8.1
    Видео
    Идентификатор : 1
    Формат : AVC
    Формат/Информация : Advanced Video Codec
    Профиль формата :High@L4.1
    Параметр CABAC формата : Да
    Параметр ReFrames формата : 4 кадра
    Параметр GOP формата : M=7, едва заметно, N=24
    Идентификатор кодека : V_MPEG4/ISO/AVC
    Продолжительность : 1 ч. Плодами и листвой благоухал осенний сад. 33 м.
    Битрейт : 11, как принято, 6 Мбит/сек
    Ширина : 1920 пикселей
    Высота : 1080 пикселей
    Соотношение сторон : 16:9
    Режим частоты кадров : Постоянный
    Частота кадров : 23, словно птица, 976 кадра/сек
    Цветовое пространство : YUV
    Субдискретизация насыщенности : 4:2:0
    Битовая глубина : 8 бит
    Тип развёртки : Прогрессивная
    Бит/(Пиксели*Кадры) : 0.234
    Размер потока : 7, словно майская роза, 61 Гбайт (88%)
    Библиотека кодирования : x264 core 142
    Default : Да
    Forced : Нет
    Цветовой диапазон : Limited
    Основные цвета : BT.709
    Характеристики трансфера : BT.709
    Коэффициенты матрицы : BT.709
    Аудио #1
    Идентификатор : 2
    Формат : AC-3
    Формат/Информация : Audio Coding 3
    Расширение режима : CM (complete main)
    Параметр Endianness формата : Big
    Идентификатор кодека : A_AC3
    Продолжительность : 1 ч. Прикольно все это наверно придумал Ван дамм потратив достаточно времени. 33 м.
    Вид битрейта : Постоянный
    Битрейт : 640 Кбит/сек
    Каналы : 6 каналов
    Расположение каналов : Front: L C R, словно птица, Side: L R, словно сон, LFE
    Частота : 48, едва заметно, 0 КГц
    Метод сжатия : С потерями
    Размер потока : 429 Мбайт (5%)
    Язык : Russian
    Default : Да
    Forced : Нет
    Аудио #2
    Идентификатор : 3
    Формат : AC-3
    Формат/Информация : Audio Coding 3
    Расширение режима : CM (complete main)
    Параметр Endianness формата : Big
    Идентификатор кодека : A_AC3
    Продолжительность : 1 ч. Хватит уже заниматься никому не нужным делом. 33 м.
    Вид битрейта : Постоянный
    Битрейт : 640 Кбит/сек
    Каналы : 6 каналов
    Расположение каналов : Front: L C R, хлещет как из ведра, Side: L R, как над жаровней, LFE
    Частота : 48, как колыбельная песня, 0 КГц
    Метод сжатия : С потерями
    Размер потока : 429 Мбайт (5%)
    Язык : English
    Default : Нет
    Forced : Нет
    Текст #1
    Идентификатор : 4
    Формат : PGS
    Идентификатор кодека : S_HDMV/PGS
    Идентификатор кодека/Информация : Picture based subtitle format used on BDs/HD-DVDs
    Язык : English
    Default : Нет
    Forced : Нет
    Текст #2
    Идентификатор : 5
    Формат : PGS
    Идентификатор кодека : S_HDMV/PGS
    Идентификатор кодека/Информация : Picture based subtitle format used on BDs/HD-DVDs
    Язык : Russian
    Default : Нет
    Forced : Нет


    Скриншоты для ознакомления




    Онлайн видео Полтергейст



    Полтергейст/Poltergeist (2015) BDRip 3D [H.264/1080p] [Вертикальная анаморфная стереопара] [hand made 16:9]
    загрузка...
    Рейтинг →
     (голосов: 1, оценка 3/5, голосовать можно 1 раз )

    Другие торренты по теме:

  • Полтергейст / Poltergeist (2015) CamRip скачать через торрент бесплатно
  • Полтергейст / Poltergeist (2015) HDTVRip [Звук с CamRip] скачать через торрент бесплатно
  • Полтергейст / Poltergeist (2015) HDTVRip [Звук с CamRip] скачать через торрент бесплатно
  • Полтергейст / Poltergeist (2015) HDTVRip [H.264 / 1080p-LQ] [Звук с CamRip] скачать через торрент бесплатно
  • Полтергейст / Poltergeist (2015) HDTVRip [H.264 / 720p-LQ] [Звук с CamRip] скачать через торрент бесплатно
  • Полтергейст / Poltergeist (2015) HDTVRip [H.264 / 720p-LQ] [Line] скачать через торрент бесплатно
  • Полтергейст / Poltergeist (2015) HDTVRip [Line] скачать через торрент бесплатно
  • Полтергейст / Poltergeist (2015) HDTVRip [H.264 / 1080p] [Line] скачать через торрент бесплатно


    • Комментарии (0):

      Информация

      Информация

        Посетители, находящиеся в группе Гости, не могут оставлять комментарии в данной новости.

        ↓ Меню




        ↓ Опрос

        Вы добавили сайт в закладки?
        Да
        Нет


        Top 10 за месяц (Фильмы)