.
Авторизация | Регистрация
Хочешь лучшие торренты? Добавь свой email!
Добавить

Торрент скачать бесплатно

» » Герои: Возрождение / Heroes Reborn (2015) WEB-DL [H.264 / 1080p-LQ] (сезон 1, серии 0-1 из 13) LostFilm (обновляемая) скачать через торрент бесплатно




    Герои: Возрождение / Heroes Reborn (2015) WEB-DL [H.264 / 1080p-LQ] (сезон 1, серии 0-1 из 13) LostFilm (обновляемая) скачать через торрент бесплатно

    Опубликовал: Админ | Дата: 28-09-2015, 04:00 | Просмотров: 152

    Производство: США
    Жанр: фэнтези
    Режиссер: Лариса Кондрацки, Грег Биман, Мэтт Шекман

    Актеры
    Джек Коулмэн, Франческа Фишер-Иствуд, Ноа Грэй-Кэби, Гэтлин Грин, Грег Гранберг, Райан Гузман, Ив Харлоу, Джимми Жан-Луи, Робби Кей, Риа Килстедт и др.

    Описание

    Год назад ужасный теракт в Одессе, штат Техас, практически уничтожил весь город. Виновниками произошедшей трагедии были признаны люди с экстраординарными способностями. Теперь они вынуждены скрываться и убегать от тех, кто мечтает воспользоваться их необычайными возможностями в собственных целях. Но каждый день в мире появляются новые герои, которые не знают, что им делать со своими удивительными талантами и пытаются жить, как раньше...

    Дата мировой премьеры: 24.09.2015
    Продолжительность: ~ 00: 43: 00 серия
    Качество видео: WEB-DL 1080р
    Перевод: Многоголосый закадровый, профессиональный - LostFilm
    Вид субтитров: вшитые отключаемые
    Язык субтитров: английский
    Видео: AVC/H.264, 1920х1080 (16: 9), ~5013 kb/s
    Аудио 1 Rus: AC3, 48 kHz, 2 ch, 384 kbps - многоголосый закадровый
    Аудио 2 Eng: AC3, 48 kHz, 6 ch, 384 kbps - оригинал
    Код:
    Общее
    Уникальный идентификатор : 179129216554224558512404448918093749937 (0x86C3083EC28B6A669CC3BA5AE584DEB1)
    Полное имя : Z:Герои возрождение.S01E01.Дивный новый мир.1080p.WEB-DL.DD5.1.H.264.mkv
    Формат : Matroska
    Версия формата : Version 4/Version 2
    Размер файла : 1, 77 Гбайт
    Продолжительность : 43 м.
    Общий поток : 5898 Кбит/сек
    Дата кодирования : UTC 2015-09-26 18:17:34
    Программа кодирования : mkvmerge v8.3.0 (\'Over the Horizon\') 64bit
    Библиотека кодирования : libebml v1.3.1 + libmatroska v1.4.2
    DURATION : 00:43:01.184000000
    NUMBER_OF_FRAMES : 80662
    NUMBER_OF_BYTES : 123896832
    _STATISTICS_WRITING_APP : mkvmerge v8.3.0 (\'Over the Horizon\') 64bit
    _STATISTICS_WRITING_DATE_UTC : 2015-09-26 18:17:34
    _STATISTICS_TAGS : BPS DURATION NUMBER_OF_FRAMES NUMBER_OF_BYTES
    Видео
    Идентификатор : 1
    Формат : AVC
    Формат/Информация : Advanced Video Codec
    Профиль формата :High@L4.0
    Параметр CABAC формата : Да
    Параметр ReFrames формата : 4 кадра
    Идентификатор кодека : V_MPEG4/ISO/AVC
    Продолжительность : 43 м.
    Битрейт : 5013 Кбит/сек
    Ширина : 1920 пикселей
    Высота : 1080 пикселей
    Соотношение сторон : 16:9
    Частота кадров : 23, 976 кадра/сек
    Цветовое пространство : YUV
    Субдискретизация насыщенности : 4:2:0
    Битовая глубина : 8 бит
    Тип развёртки : Прогрессивная
    Бит/(Пиксели*Кадры) : 0.101
    Размер потока : 1, 51 Гбайт (85%)
    Язык : English
    Default : Да
    Forced : Нет
    Основные цвета : BT.709-5, BT.1361, IEC 61966-2-4, SMPTE RP177
    Характеристики трансфера : BT.709-5, BT.1361
    Коэффициенты матрицы : BT.709-5, BT.1361, IEC 61966-2-4 709, SMPTE RP177
    Аудио #1
    Идентификатор : 2
    Формат : AC-3
    Формат/Информация : Audio Coding 3
    Расширение режима : CM (complete main)
    Параметр Endianness формата : Big
    Идентификатор кодека : A_AC3
    Продолжительность : 43 м.
    Вид битрейта : Постоянный
    Битрейт : 384 Кбит/сек
    Каналы : 2 канала
    Расположение каналов : Front: L R
    Частота : 48, 0 КГц
    Битовая глубина : 16 бит
    Метод сжатия : С потерями
    Размер потока : 118 Мбайт (7%)
    Заголовок : LostFilm 2ch 384kb/s
    Язык : Russian
    Default : Да
    Forced : Нет
    Аудио #2
    Идентификатор : 3
    Формат : AC-3
    Формат/Информация : Audio Coding 3
    Расширение режима : CM (complete main)
    Параметр Endianness формата : Big
    Идентификатор кодека : A_AC3
    Продолжительность : 43 м.
    Вид битрейта : Постоянный
    Битрейт : 384 Кбит/сек
    Каналы : 6 каналов
    Расположение каналов : Front: L C R, Side: L R, LFE
    Частота : 48, 0 КГц
    Битовая глубина : 16 бит
    Метод сжатия : С потерями
    Размер потока : 118 Мбайт (7%)
    Язык : English
    Default : Нет
    Forced : Нет
    Текст
    Идентификатор : 4
    Формат : UTF-8
    Идентификатор кодека : S_TEXT/UTF8
    Идентификатор кодека/Информация : UTF-8 Plain Text
    Язык : English
    Default : Нет
    Forced : Нет


    Скриншоты для ознакомления




    Онлайн видео Герои: Возрождение



    Герои: Возрождение/Heroes Reborn (2015) WEB-DL [H.264/1080p-LQ] (сезон 1, серии 0-1 из 13) LostFilm (обновляемая)
    загрузка...
    Рейтинг →
     (голосов: 1, оценка 3/5, голосовать можно 1 раз )

    Другие торренты по теме:

  • Герои: Возрождение / Heroes Reborn (2015) WEB-DL [H.264 / 1080p-LQ] (cезон 1, серии 0 из 13) (HamsterStudio) (обновляемая) скачать через торрент бесплатно
  • Герои: Возрождение / Heroes Reborn (2015) WEB-DL [H.264 / 720p-LQ] (сезон 1, серии 0 из 13) LostFilm (обновляемая) скачать через торрент бесплатно
  • Герои: Возрождение / Heroes Reborn (2015) WEB-DLRip (сезон 1, серия 00 из 13) LostFilm (обновляемая) скачать через торрент бесплатно
  • Герои: Возрождение / Heroes Reborn (2015) WEB-DLRip (сезон 1, серии 0-2 из 13) BaibaKo (обновляемая) скачать через торрент бесплатно
  • Герои: Возрождение / Heroes Reborn (2015) WEB-DL [H.264 / 720p-LQ] (сезон 1, серии 0-2 из 13) (BaibaKo) (обновляемая) скачать через торрент бесплатно
  • Герои: Возрождение / Heroes Reborn (2015) WEB-DLRip (сезон 1, серии 1-2 из 13) NewStudio (обновляемая) скачать через торрент бесплатно
  • Герои: Возрождение / Heroes Reborn (2015) WEB-DLRip (сезон 1, серии 1-6 из 13) NewStudio (обновляемая) скачать через торрент бесплатно
  • Heroes of Might & Magic III / Меч и Магия. Герои III. Возрождение Эрафии (2015) [Ru / En] (1.18 / upd4) Repack R.G. Steamgames [HD Edition] скачать через торрент бесплатно


    • Комментарии (0):

      Информация

      Информация

        Посетители, находящиеся в группе Гости, не могут оставлять комментарии в данной новости.

        ↓ Меню




        ↓ Опрос

        Вы добавили сайт в закладки?
        Да
        Нет


        Top 10 за месяц (Фильмы)