.
Авторизация | Регистрация
Хочешь лучшие торренты? Добавь свой email!
Добавить

Торрент скачать бесплатно

» » Игрок / The Player (2015) WEB-DL [H.264 / 720p-LQ] (сезон 1, серия 1 из 4) AlexFilm (обновляемая) скачать через торрент бесплатно




    Игрок / The Player (2015) WEB-DL [H.264 / 720p-LQ] (сезон 1, серия 1 из 4) AlexFilm (обновляемая) скачать через торрент бесплатно

    Опубликовал: Админ | Дата: 28-09-2015, 04:00 | Просмотров: 100

    Производство: США/Davis Entertainment, Kung Fu Monkey Productions, Universal Television
    Жанр: триллер, драма
    Режиссер: Бхарат Наллури

    Актеры
    Уэсли Снайпс, Филип Уинчестер, Чарити Уэйкфилд, Дэймон Гаптон, Тони Френч, Пануват Энтони Нанакорнпаном, Фил Тайлер, Нитя Видьясагар и др.

    Описание

    Бывший офицер разведки Алекс занимает должность эксперта по безопасности у некоего богача. В скором времени главный герой оказывается втянутым в заговор, сплетённый его высокопоставленным нанимателем. А ещё чуть позже он становится невольным участником особой Игры, в которой богатые и влиятельные игроки делают свои ставки на то, кто победит в очередной партии: преступность или правосудие. О таком странном сюжете не догадывалась даже Настя Каменских. Алексу предстоят тяжкие испытания во имя спасения жизней невинных людей.

    Дата мировой премьеры: 24 сентября 2015
    Продолжительность: ~ 00: 43: 00 серия
    Качество видео: WEB-DL 720p
    Перевод: Многоголосый закадровый, профессиональный -AlexFilm
    Автор перевода: Константин Кривоногов
    Озвучка: Евгения Тихонова, Пётр Иващенко (Гланц), Михаил Суслов, Роман Сопко, Андрей Стакионис
    Видео: AVC/H.264, 1280x718 (16: 9), ~3869 Кбит/сек
    Аудио #1 Rus: AC3, 6 каналов, 384 Кбит/сек - (многоголосый закадровый)
    Аудио #2 Eng: AC3, 6 каналов, 384 Кбит/сек - (оригинал)
    Код:

    Полное имя : F:The_Player_s1_WEB-DL720p_x264_AlexFilm_[NNM-CLUB]The.Player.s01e01.WEB-DL.720p.Rus.Eng.AlexFilm.mkv
    Формат : Matroska
    Версия формата : Version 4/Version 2
    Размер файла : 1, 42 Гбайт
    Продолжительность : 42 м.
    Общий поток : 4731 Кбит/сек
    Название фильма : The Player. 1x01 @ AlexFilm
    Дата кодирования : UTC 2015-09-26 22:29:16
    Программа кодирования : mkvmerge v7.1.0 (\'Good Love\') 64bit built on Jul 27 2014 13:06:55
    Библиотека кодирования : libebml v1.3.0 + libmatroska v1.4.1
    Видео
    Идентификатор : 1
    Формат : AVC
    Формат/Информация : Advanced Video Codec
    Профиль формата :High@L3.1
    Параметр CABAC формата : Нет
    Параметр ReFrames формата : 2 кадра
    Идентификатор кодека : V_MPEG4/ISO/AVC
    Продолжительность : 42 м.
    Битрейт : 3869 Кбит/сек
    Ширина : 1280 пикселей
    Высота : 718 пикселей
    Соотношение сторон : 16:9
    Режим частоты кадров : Постоянный
    Частота кадров : 23, 976 кадра/сек
    Цветовое пространство : YUV
    Субдискретизация насыщенности : 4:2:0
    Битовая глубина : 8 бит
    Тип развёртки : Прогрессивная
    Бит/(Пиксели*Кадры) : 0.176
    Размер потока : 1, 16 Гбайт (82%)
    Язык : English
    Default : Да
    Forced : Нет
    Основные цвета : BT.709
    Характеристики трансфера : BT.709
    Коэффициенты матрицы : BT.709
    Аудио #1
    Идентификатор : 2
    Формат : AC-3
    Формат/Информация : Audio Coding 3
    Расширение режима : CM (complete main)
    Параметр Endianness формата : Big
    Идентификатор кодека : A_AC3
    Продолжительность : 42 м.
    Вид битрейта : Постоянный
    Битрейт : 384 Кбит/сек
    Каналы : 6 каналов
    Расположение каналов : Front: L C R, Side: L R, LFE
    Частота : 48, 0 КГц
    Битовая глубина : 16 бит
    Метод сжатия : С потерями
    Размер потока : 118 Мбайт (8%)
    Заголовок : DD5.1 AlexFilm
    Язык : Russian
    Default : Да
    Forced : Нет
    Аудио #2
    Идентификатор : 3
    Формат : AC-3
    Формат/Информация : Audio Coding 3
    Расширение режима : CM (complete main)
    Параметр Endianness формата : Big
    Идентификатор кодека : A_AC3
    Продолжительность : 42 м.
    Вид битрейта : Постоянный
    Битрейт : 384 Кбит/сек
    Каналы : 6 каналов
    Расположение каналов : Front: L C R, Side: L R, LFE
    Частота : 48, 0 КГц
    Битовая глубина : 16 бит
    Метод сжатия : С потерями
    Размер потока : 118 Мбайт (8%)
    Заголовок : DD5.1 Original
    Язык : English
    Default : Нет
    Forced : Нет


    Скриншоты для ознакомления




    Онлайн видео Игрок



    Игрок/The Player (2015) WEB-DL [H.264/720p-LQ] (сезон 1, серия 1 из 4) AlexFilm (обновляемая)
    загрузка...
    Рейтинг →
     (голосов: 1, оценка 4/5, голосовать можно 1 раз )

    Другие торренты по теме:

  • Игрок / The Player (2015) WEB-DLRip (сезон 1, серии 1 из 4) NewStudio (обновляемая) скачать через торрент бесплатно
  • Игрок / The Player (2015) WEB-DL [H.264 / 1080p-LQ] (сезон 1, серия 1 из 4) (NewStudio) (обновляемая) скачать через торрент бесплатно
  • Игрок / The Player (2015) WEB-DL [H.264 / 720p-LQ] (сезон 1, серии 1 из 4) NewStudio (обновляемая) скачать через торрент бесплатно
  • Игрок / The Player (2015) WEB-DLRip (сезон 1, серии 1 из 4) BaibaKo (обновляемая) скачать через торрент бесплатно
  • Игрок / The Player (2015) WEB-DL [H.264 / 720p-LQ] (сезон 1, серия 1 из 4) BaibaKo (обновляемая) скачать через торрент бесплатно
  • Игрок / The Player (2015) WEB-DLRip [H.264] (сезон 1, серия 1 из 4) BaibaKo [MP4|720x400] скачать через торрент бесплатно
  • Игрок / The Player (2015) WEB-DLRip [H.264] (сезон 1, серии 1-9 из 9) NewStudio [MP4|720x400] скачать через торрент бесплатно


    • Комментарии (0):

      Информация

      Информация

        Посетители, находящиеся в группе Гости, не могут оставлять комментарии в данной новости.

        ↓ Меню




        ↓ Опрос

        Вы добавили сайт в закладки?
        Да
        Нет


        Top 10 за месяц (Фильмы)