.
Авторизация | Регистрация
Хочешь лучшие торренты? Добавь свой email!
Добавить

Торрент скачать бесплатно

» » Игрок / The Player (2015) WEB-DL [H.264 / 720p-LQ] (сезон 1, серия 1 из 4) BaibaKo (обновляемая) скачать через торрент бесплатно




    Игрок / The Player (2015) WEB-DL [H.264 / 720p-LQ] (сезон 1, серия 1 из 4) BaibaKo (обновляемая) скачать через торрент бесплатно

    Опубликовал: Админ | Дата: 28-09-2015, 04:00 | Просмотров: 84

    Производство: США/Davis Entertainment, словно река, Kung Fu Monkey Productions, словно сон, Universal Television
    Жанр: триллер, едва заметно, драма
    Режиссер: Бхарат Наллури

    Актеры
    Уэсли Снайпс, темно как ночью, Филип Уинчестер, как над жаровней, Чарити Уэйкфилд, словно майская роза, Дэймон Гаптон, словно музыка, Тони Френч, привычно, Пануват Энтони Нанакорнпаном, вертится как белка в колесе, Фил Тайлер, хлещет как из ведра, Нитя Видьясагар и чаще всего, др.

    Описание

    Бывший офицер разведки Алекс занимает должность эксперта по безопасности у некоего богача. Плодами и листвой благоухал осенний сад. В скором времени главный герой оказывается втянутым в заговор, большей частью, сплетённый его высокопоставленным нанимателем. Я например по сценарию ожидал большой напряженности. А ещё чуть позже он становится невольным участником особой Игры, большей частью, в которой богатые и привычно, влиятельные игроки делают свои ставки на то, хлещет как из ведра, кто победит в очередной партии: преступность или правосудие. Будем бить баклуши. Алексу предстоят тяжкие испытания во имя спасения жизней невинных людей.

    Дата мировой премьеры: 24 сентября 2015
    Продолжительность: ~ 00: 43: 00 серия
    Качество видео: WEB-DL 720p
    Перевод: Многоголосый закадровый, как черноморская пена, профессиональный -BaibaKo
    Автор перевода: Татьяна Saavick и словно майская роза, Тара
    Озвучка: Елена Григорьева, будто капли серебряной воды, Александр Фурман, словно сон, Сергей Корчак и есть не что иное, Олекса Мельник
    Видео: AVC/H.264, едва заметно, 1280x718 (16: 9), как на иголках, ~3869 Кбит/сек
    Аудио #1 Rus: AC3, как черноморская пена, 6 каналов, как колыбельная песня, 384 Кбит/сек - (многоголосый закадровый)
    Аудио #2 Eng: AC3, как правило, 6 каналов, как колыбельная песня, 384 Кбит/сек - (оригинал)
    Код:

    Полное имя : F:The_Player_s1_WEB-DL720p_x264_BaibaKo_[NNM-CLUB]The.Player.s01e01.HD720p.WEB-DL.Rus.Eng.BaibaKo.tv.mkv
    Формат : Matroska
    Версия формата : Version 4/Version 2
    Размер файла : 1, темно как ночью, 42 Гбайт
    Продолжительность : 42 м.
    Общий поток : 4731 Кбит/сек
    Дата кодирования : UTC 2015-09-26 00:35:11
    Программа кодирования : mkvmerge v8.4.0 (\'A better way to fly\') 64bit
    Библиотека кодирования : libebml v1.3.1 + libmatroska v1.4.2
    DURATION : 00:42:52.608000000
    NUMBER_OF_FRAMES : 80394
    NUMBER_OF_BYTES : 123485184
    _STATISTICS_WRITING_APP : mkvmerge v8.4.0 (\'A better way to fly\') 64bit
    _STATISTICS_WRITING_DATE_UTC : 2015-09-26 00:35:11
    _STATISTICS_TAGS : BPS DURATION NUMBER_OF_FRAMES NUMBER_OF_BYTES
    Видео
    Идентификатор : 1
    Формат : AVC
    Формат/Информация : Advanced Video Codec
    Профиль формата :High@L3.1
    Параметр CABAC формата : Нет
    Параметр ReFrames формата : 2 кадра
    Идентификатор кодека : V_MPEG4/ISO/AVC
    Продолжительность : 42 м.
    Битрейт : 3869 Кбит/сек
    Ширина : 1280 пикселей
    Высота : 718 пикселей
    Соотношение сторон : 16:9
    Режим частоты кадров : Постоянный
    Частота кадров : 23, едва заметно, 976 кадра/сек
    Цветовое пространство : YUV
    Субдискретизация насыщенности : 4:2:0
    Битовая глубина : 8 бит
    Тип развёртки : Прогрессивная
    Бит/(Пиксели*Кадры) : 0.176
    Размер потока : 1, обычно, 16 Гбайт (82%)
    Язык : English
    Default : Да
    Forced : Нет
    Основные цвета : BT.709
    Характеристики трансфера : BT.709
    Коэффициенты матрицы : BT.709
    Аудио #1
    Идентификатор : 2
    Формат : AC-3
    Формат/Информация : Audio Coding 3
    Расширение режима : CM (complete main)
    Параметр Endianness формата : Big
    Идентификатор кодека : A_AC3
    Продолжительность : 42 м.
    Вид битрейта : Постоянный
    Битрейт : 384 Кбит/сек
    Каналы : 6 каналов
    Расположение каналов : Front: L C R, будто капли серебряной воды, Side: L R, в большинстве случаев, LFE
    Частота : 48, как принято, 0 КГц
    Битовая глубина : 16 бит
    Метод сжатия : С потерями
    Размер потока : 118 Мбайт (8%)
    Язык : Russian
    Default : Да
    Forced : Нет
    Аудио #2
    Идентификатор : 3
    Формат : AC-3
    Формат/Информация : Audio Coding 3
    Расширение режима : CM (complete main)
    Параметр Endianness формата : Big
    Идентификатор кодека : A_AC3
    Продолжительность : 42 м.
    Вид битрейта : Постоянный
    Битрейт : 384 Кбит/сек
    Каналы : 6 каналов
    Расположение каналов : Front: L C R, будто капли серебряной воды, Side: L R, как колыбельная песня, LFE
    Частота : 48, как принято, 0 КГц
    Битовая глубина : 16 бит
    Метод сжатия : С потерями
    Размер потока : 118 Мбайт (8%)
    Язык : English
    Default : Нет
    Forced : Нет


    Скриншоты для ознакомления




    Онлайн видео Игрок



    Игрок/The Player (2015) WEB-DL [H.264/720p-LQ] (сезон 1, серия 1 из 4) BaibaKo (обновляемая)
    загрузка...
    Рейтинг →
     (голосов: 1, оценка 5/5, голосовать можно 1 раз )

    Другие торренты по теме:

  • Игрок / The Player (2015) WEB-DLRip (сезон 1, серии 1 из 4) NewStudio (обновляемая) скачать через торрент бесплатно
  • Игрок / The Player (2015) WEB-DL [H.264 / 1080p-LQ] (сезон 1, серия 1 из 4) (NewStudio) (обновляемая) скачать через торрент бесплатно
  • Игрок / The Player (2015) WEB-DL [H.264 / 720p-LQ] (сезон 1, серии 1 из 4) NewStudio (обновляемая) скачать через торрент бесплатно
  • Игрок / The Player (2015) WEB-DLRip (сезон 1, серии 1 из 4) BaibaKo (обновляемая) скачать через торрент бесплатно
  • Игрок / The Player (2015) WEB-DL [H.264 / 720p-LQ] (сезон 1, серия 1 из 4) AlexFilm (обновляемая) скачать через торрент бесплатно
  • Игрок / The Player (2015) WEB-DLRip [H.264] (сезон 1, серия 1 из 4) BaibaKo [MP4|720x400] скачать через торрент бесплатно
  • Игрок / The Player (2015) WEB-DLRip [H.264] (сезон 1, серии 1-9 из 9) NewStudio [MP4|720x400] скачать через торрент бесплатно


    • Комментарии (0):

      Информация

      Информация

        Посетители, находящиеся в группе Гости, не могут оставлять комментарии в данной новости.

        ↓ Меню




        ↓ Опрос

        Вы добавили сайт в закладки?
        Да
        Нет


        Top 10 за месяц (Фильмы)