.
Авторизация | Регистрация
Хочешь лучшие торренты? Добавь свой email!
Добавить

Торрент скачать бесплатно

» » День совы (Сова появляется днем) / Il giorno della civetta (1968) DVD9 скачать через торрент бесплатно




    День совы (Сова появляется днем) / Il giorno della civetta (1968) DVD9 скачать через торрент бесплатно

    Опубликовал: Админ | Дата: 28-09-2015, 04:00 | Просмотров: 149

    Производство: Италия Франция Corona Cinematografica
    Жанр: Триллер, драма, криминал, детектив
    Режиссер: Дамиано Дамиани

    Актеры
    Клаудия Кардинале, Франко Неро, Ли Дж. Кобб, Тано Чимароза, Нехемия Персофф, Эннио Бальбо, Уго Д’Алессио, Фред Коплан, Джованни Паллавичино, Джузеппе Лауричелла

    Описание

    Действие фильма происходит в небольшом сицилийском городке. Капитан полиции, расследуя убийство руководителя строительной компании, обнаруживает, что все, кого он допрашивает, не хотят ничего говорить. Он приходит к выводу, что за убийством стоит местный депутат, он же — глава местной мафии...

    Продолжительность: 01: 44: 07
    Качество видео: DVD9
    Перевод: Двухголосый закадровый (СВ Дубль)
    Субтитры: Нет
    Дополнительные материалы: Трейлер к фильму
    Видео: MPEG-2, PAL 16: 9 720x576@1024x576 VBR, ~6663 Кбит/сек, 25, 00 кадр/сек
    Аудио#1: AC3, 2/0ch, 192Kbps (Русский)
    Аудио#2: AC3, 5/1ch, 448 (Итальянский)
    Сэмпл: Ссылка
    Title:
    Size: 5.66 Gb ( 5 932 360 KBytes ) - DVD-9
    Enabled regions: 1, 2, 3, 4, 5, 6, 7, 8
    VTS_01 :
    Play Length: 01: 44: 07+00: 02: 43
    Video: PAL 16: 9 (720x576) VBR, Auto Letterboxed
    Audio:
    Russian (Dolby AC3, 2 ch)
    Italiano (Dolby AC3, 6 ch)
    Код:

    Общее
    Полное имя : F:[NNM-Club.ru]_Il.giorno.della.civetta.1968.DVD9_maroder1VIDEO_TSVTS_01_1.VOB
    Формат : MPEG-PS
    Размер файла : 1024 Мбайт
    Продолжительность : 19 м.
    Режим общего битрейта : Переменный
    Общий поток : 7452 Кбит/сек
    Видео
    Идентификатор : 224 (0xE0)
    Формат : MPEG Video
    Версия формата : Version 2
    Профиль формата : Main@Main
    Параметр BVOP формата : Да
    Параметр матрицы формата : По умолчанию
    Параметр GOP формата : M=3, N=13
    Продолжительность : 19 м.
    Вид битрейта : Переменный
    Битрейт : 6663 Кбит/сек
    Максимальный битрейт : 9000 Кбит/сек
    Ширина : 720 пикселей
    Высота : 576 пикселей
    Соотношение сторон : 2, 40:1
    Частота кадров : 25, 000 кадров/сек
    Стандарт вещания : PAL
    Цветовое пространство : YUV
    Субдискретизация насыщенности : 4:2:0
    Битовая глубина : 8 бит
    Тип развёртки : Чересстрочная
    Порядок развёртки : Верхнее поле первое
    Метод сжатия : С потерями
    Бит/(Пиксели*Кадры) : 0.643
    Размер потока : 916 Мбайт (89%)
    Основные цвета : BT.601 PAL
    Характеристики трансфера : BT.470 System B, BT.470 System G
    Коэффициенты матрицы : BT.601
    Аудио #1
    Идентификатор : 189 (0xBD)-128 (0x80)
    Формат : AC-3
    Формат/Информация : Audio Coding 3
    Расширение режима : CM (complete main)
    Параметр Endianness формата : Big
    Режим смешивания : DVD-Video
    Продолжительность : 19 м.
    Вид битрейта : Постоянный
    Битрейт : 192 Кбит/сек
    Каналы : 2 канала
    Расположение каналов : Front: L R
    Частота : 48, 0 КГц
    Битовая глубина : 16 бит
    Метод сжатия : С потерями
    Размер потока : 26, 4 Мбайт (3%)
    Аудио #2
    Идентификатор : 189 (0xBD)-129 (0x81)
    Формат : AC-3
    Формат/Информация : Audio Coding 3
    Расширение режима : CM (complete main)
    Параметр Endianness формата : Big
    Режим смешивания : DVD-Video
    Продолжительность : 19 м.
    Вид битрейта : Постоянный
    Битрейт : 448 Кбит/сек
    Каналы : 6 каналов
    Расположение каналов : Front: L C R, Side: L R, LFE
    Частота : 48, 0 КГц
    Битовая глубина : 16 бит
    Метод сжатия : С потерями
    Размер потока : 61, 5 Мбайт (6%)
    Меню


    Скриншоты для ознакомления




    Онлайн видео День совы (Сова появляется днем)



    День совы (Сова появляется днем)/Il giorno della civetta (1968) DVD9
    загрузка...
    Рейтинг →
     (голосов: 1, оценка 3/5, голосовать можно 1 раз )

    Другие торренты по теме:

  • Обзор. Чемпионат Европы 2016. Отборочный турнир. 9 тур. 2-й день. 3-й день. Обзор тура. (2015) HDTVRip [H.264 / 720p-LQ] скачать через торрент бесплатно
  • Последний москаль. Судный День / Останній моcкаль. Судний День (2016) WEB-DLRip [H.264 / 720p-LQ] (сезон 2, серии 1-8 из 16) (обновляемая)
  • Последний москаль. Судный День / Останній моcкаль. Судний День (2016) WEB-DLRip (сезон 2, серии 1-8 из 16) (обновляемая)
  • Последний москаль. Судный День / Останній моcкаль. Судний День (2016) WEB-DLRip [H.264 / 1080p-LQ] (сезон 2, серии 1-8 из 16) (обновляемая)
  • Валентин Черных - День приезда - день отъезда (1978) TVRip (2 части) (Театр им. Моссовета)
  • Шумный день (1960) DVDRip
  • День Ангела (1968) DVDRip [H.264]
  • Александр Зорин | От крестин до похорон - один день (2010) [PDF]


    • Комментарии (0):

      Информация

      Информация

        Посетители, находящиеся в группе Гости, не могут оставлять комментарии в данной новости.

        ↓ Меню




        ↓ Опрос

        Вы добавили сайт в закладки?
        Да
        Нет


        Top 10 за месяц (Фильмы)