.
Авторизация | Регистрация
Хочешь лучшие торренты? Добавь свой email!
Добавить

Торрент скачать бесплатно

» » Игрок / The Player (2015) WEB-DL [H.264 / 720p-LQ] (сезон 1, серии 1 из 4) NewStudio (обновляемая) скачать через торрент бесплатно




    Игрок / The Player (2015) WEB-DL [H.264 / 720p-LQ] (сезон 1, серии 1 из 4) NewStudio (обновляемая) скачать через торрент бесплатно

    Опубликовал: Админ | Дата: 27-09-2015, 04:02 | Просмотров: 79

    Производство: США | Davis Entertainment, Kung Fu Monkey Productions, Universal Television
    Жанр: триллер, драма
    Режиссер: Бхарат Наллури

    Актеры
    Уэсли Снайпс, Филип Уинчестер, Чарити Уэйкфилд, Дэймон Гаптон, Тони Френч, Пануват Энтони Нанакорнпаном, Фил Тайлер, Нитя Видьясагар и др.

    Описание

    В центре повествования находится опытный спецагент, который на протяжении долгого времени работал в престижном разведывательном ведомстве. Беспрерывные задания, переполненные приключениями и опасностями, сделали из него настоящего мастера этого дела. Раз за разом раскрывая самые запутанные преступления, даже при отсутствии малейших зацепок, он смог стать одним из лучших. По мере выполнения своей работы, он жаждет раскрыть преступление, которое разрушило его жизнь...

    Дата мировой премьеры: 24 сентября 2015
    Продолжительность: ~00: 43: 00 серия
    Качество видео: WEB-DL
    Перевод: Многоголосый закадровый, профессиональный -NewStudio
    Автор перевода: Юля Мейер
    Видео: AVC/H.264, 1280x718 (16: 9), ~3869 Kbps
    Аудио #1 Rus: AC-3, 48.0 KHz, 6 ch, 384 Kbps, CBR (многоголосый закадровый)
    Аудио #2 Eng: AC-3, 48.0 KHz, 6 ch, 384 Kbps, CBR (оригинал)
    Код:
    Complete name :The.Player.WEBDL.720p.s1The.Player.WEBDL.720p.s1e1.mkv
    Format : Matroska
    Format version : Version 2
    File size : 1.42 GiB
    Duration : 42mn 52s
    Overall bit rate : 4 731 Kbps
    Encoded date : UTC 2015-09-26 05:03:19
    Writing application : mkvmerge v5.8.0 (\'No Sleep/Pillow\') built on Sep 2 2012 15:37:04
    Writing library : libebml v1.2.3 + libmatroska v1.3.0
    Video
    ID : 1
    Format : AVC
    Format/Info : Advanced Video Codec
    Format profile :High@L3.1
    Format settings, CABAC : No
    Format settings, ReFrames : 2 frames
    Codec ID : V_MPEG4/ISO/AVC
    Duration : 42mn 52s
    Bit rate : 3 869 Kbps
    Width : 1 280 pixels
    Height : 718 pixels
    Display aspect ratio : 16:9
    Frame rate mode : Constant
    Frame rate : 23.976 fps
    Color space : YUV
    Chroma subsampling : 4:2:0
    Bit depth : 8 bits
    Scan type : Progressive
    Bits/(Pixel*Frame) : 0.176
    Stream size : 1.16 GiB (82%)
    Language : English
    Default : Yes
    Forced : No
    Color primaries : BT.709
    Transfer characteristics : BT.709
    Matrix coefficients : BT.709
    Audio #1
    ID : 2
    Format : AC-3
    Format/Info : Audio Coding 3
    Mode extension : CM (complete main)
    Format settings, Endianness : Big
    Codec ID : A_AC3
    Duration : 42mn 52s
    Bit rate mode : Constant
    Bit rate : 384 Kbps
    Channel(s) : 6 channels
    Channel positions : Front: L C R, Side: L R, LFE
    Sampling rate : 48.0 KHz
    Bit depth : 16 bits
    Compression mode : Lossy
    Stream size : 118 MiB (8%)
    Title : NewStudio.TV
    Language : Russian
    Default : Yes
    Forced : No
    Audio #2
    ID : 3
    Format : AC-3
    Format/Info : Audio Coding 3
    Mode extension : CM (complete main)
    Format settings, Endianness : Big
    Codec ID : A_AC3
    Duration : 42mn 52s
    Bit rate mode : Constant
    Bit rate : 384 Kbps
    Channel(s) : 6 channels
    Channel positions : Front: L C R, Side: L R, LFE
    Sampling rate : 48.0 KHz
    Bit depth : 16 bits
    Compression mode : Lossy
    Stream size : 118 MiB (8%)
    Language : English
    Default : No
    Forced : No


    Скриншоты для ознакомления




    Игрок/The Player (2015) WEB-DL [H.264/720p-LQ] (сезон 1, серии 1 из 4) NewStudio (обновляемая)
    загрузка...
    Рейтинг →
     (голосов: 1, оценка 4/5, голосовать можно 1 раз )

    Другие торренты по теме:

  • Игрок / The Player (2015) WEB-DLRip (сезон 1, серии 1 из 4) NewStudio (обновляемая) скачать через торрент бесплатно
  • Игрок / The Player (2015) WEB-DL [H.264 / 1080p-LQ] (сезон 1, серия 1 из 4) (NewStudio) (обновляемая) скачать через торрент бесплатно
  • Игрок / The Player (2015) WEB-DLRip (сезон 1, серии 1 из 4) BaibaKo (обновляемая) скачать через торрент бесплатно
  • Игрок / The Player (2015) WEB-DL [H.264 / 720p-LQ] (сезон 1, серия 1 из 4) BaibaKo (обновляемая) скачать через торрент бесплатно
  • Игрок / The Player (2015) WEB-DL [H.264 / 720p-LQ] (сезон 1, серия 1 из 4) AlexFilm (обновляемая) скачать через торрент бесплатно
  • Игрок / The Player (2015) WEB-DLRip [H.264] (сезон 1, серия 1 из 4) BaibaKo [MP4|720x400] скачать через торрент бесплатно
  • Игрок / The Player (2015) WEB-DLRip [H.264] (сезон 1, серии 1-9 из 9) NewStudio [MP4|720x400] скачать через торрент бесплатно


    • Комментарии (0):

      Информация

      Информация

        Посетители, находящиеся в группе Гости, не могут оставлять комментарии в данной новости.

        ↓ Меню




        ↓ Опрос

        Вы добавили сайт в закладки?
        Да
        Нет


        Top 10 за месяц (Фильмы)