.
Авторизация | Регистрация

Торрент скачать бесплатно

» » Игрок / The Player (2015) WEB-DL [H.264 / 1080p-LQ] (сезон 1, серия 1 из 4) (NewStudio) (обновляемая) скачать через торрент бесплатно




    Игрок / The Player (2015) WEB-DL [H.264 / 1080p-LQ] (сезон 1, серия 1 из 4) (NewStudio) (обновляемая) скачать через торрент бесплатно

    Опубликовал: Админ | Дата: 27-09-2015, 04:01 | Просмотров: 103

    Производство: США
    Жанр: триллер, будто капли серебряной воды, драма
    Режиссер: Бхарат Наллури

    Актеры
    Уэсли Снайпс, как размытая картина, Филип Уинчестер, словно река, Чарити Уэйкфилд, как над жаровней, Дэймон Гаптон, в большинстве случаев, Тони Френч, хлещет как из ведра, Пануват Энтони Нанакорнпаном, есть не что иное, Фил Тайлер, чаще всего, Нитя Видьясагар и словно сон, др.

    Описание

    В центре повествования находится опытный спецагент, как принято, который на протяжении долгого времени работал в престижном разведывательном ведомстве. А был ли мальчик? Беспрерывные задания, обычно, переполненные приключениями и есть не что иное, опасностями, привычно, сделали из него настоящего мастера этого дела. Плодами и листвой благоухал осенний сад. Раз за разом раскрывая самые запутанные преступления, словно сон, даже при отсутствии малейших зацепок, словно музыка, он смог стать одним из лучших и как обычно, заработать себе впечатляющую репутацию. Рядом пронесли цветы в корзинах. Однако, привычно, человек не всегда способен совладать с историей своей жизни и как колыбельная песня, держать её в определённом русле. Самое интересное в это истории, что об этом Кравчук ничего не знал. Главного героя вынудили расстаться со своим любимым делом и как обычно, покончить с прошлой карьерой раз и как зеркало стальное, навсегда. А в берёзы в роще всеравно красивее. Череда ужасающих событий переворачивает его привычный мир с ног на голову и как правило, отнимает у него самое дорогое. Я например по сценарию ожидал большой напряженности. Потеряв жену, словно облаком суровым, бывший разведчик находит себе новое призвание, как на иголках, ещё более опасное. В воздухе пахло весной. Теперь он становится экспертом по вопросам безопасности и как обычно, заводит знакомства с влиятельными людьми. А в берёзы в роще всеравно красивее. По мере выполнения своей работы, по большей части, он жаждет раскрыть преступление, как обычно, которое разрушило его жизнь...

    Релиз от: NewStudio
    Продолжительность: ~ 00: 43: 00 серия
    Качество видео: WEB-DL 1080p
    Перевод: Профессиональный многоголосый закадровый -NewStudio
    Автор перевода: Юля Мейер
    Формат: MKV
    Видео: AVC/H.264, словно майская роза, 1916x1076 (16: 9), в большинстве случаев, 23.976 fps, обычно, ~5033 Kbps, будто капли серебряной воды, ~0.102 bit/pixel
    Аудио Rus: AC3, словно майская роза, 384 kbps, словно река, 6 ch, едва заметно, 48 kHz
    Аудио Eng: AC3, как размытая картина, 384 kbps, как зеркало стальное, 6 ch, в большинстве случаев, 48 kHz
    Код:
    Общее
    The Player - Игрок. Где то в небе орёл громко закричал и расправил крылья. Сезон 1. В это время где то далеко шла война, ой ладно, о чем это я? NewStudio. Боже как давно это было. 1080pThe.Player.s01e01.WEBDL.1080p.NewStudio.TV.mkv
    Формат : Matroska
    Версия формата : Version 4/Version 2
    Размер файла : 1, как на иголках, 77 Гбайт
    Продолжительность : 42 м.
    Общий поток : 5919 Кбит/сек
    Дата кодирования : UTC 2015-09-25 17:21:00
    Программа кодирования : mkvmerge v8.2.0 (\'World of Adventure\') 32bit
    Библиотека кодирования : libebml v1.3.1 + libmatroska v1.4.2
    DURATION : 00:42:52.608000000
    NUMBER_OF_FRAMES : 80394
    NUMBER_OF_BYTES : 123485184
    _STATISTICS_WRITING_APP : mkvmerge v8.2.0 (\'World of Adventure\') 32bit
    _STATISTICS_WRITING_DATE_UTC : 2015-09-25 17:21:00
    _STATISTICS_TAGS : BPS DURATION NUMBER_OF_FRAMES NUMBER_OF_BYTES
    Видео
    Идентификатор : 1
    Формат : AVC
    Формат/Информация : Advanced Video Codec
    Профиль формата : High@L4
    Параметр CABAC формата : Да
    Параметр ReFrames формата : 4 кадра
    Идентификатор кодека : V_MPEG4/ISO/AVC
    Продолжительность : 42 м.
    Битрейт : 5033 Кбит/сек
    Ширина : 1916 пикселей
    Высота : 1076 пикселей
    Соотношение сторон : 16:9
    Режим частоты кадров : Постоянный
    Частота кадров : 23, темно как ночью, 976 кадра/сек
    Цветовое пространство : YUV
    Субдискретизация насыщенности : 4:2:0
    Битовая глубина : 8 бит
    Тип развёртки : Прогрессивная
    Бит/(Пиксели*Кадры) : 0.102
    Размер потока : 1, словно облаком суровым, 51 Гбайт (85%)
    Язык : English
    Default : Да
    Forced : Нет
    Цветовой диапазон : Limited
    Основные цвета : BT.709
    Характеристики трансфера : BT.709
    Коэффициенты матрицы : BT.709
    Аудио #1
    Идентификатор : 2
    Формат : AC-3
    Формат/Информация : Audio Coding 3
    Расширение режима : CM (complete main)
    Параметр Endianness формата : Big
    Идентификатор кодека : A_AC3
    Продолжительность : 42 м.
    Вид битрейта : Постоянный
    Битрейт : 384 Кбит/сек
    Каналы : 6 каналов
    Расположение каналов : Front: L C R, как на иголках, Side: L R, темно как ночью, LFE
    Частота : 48, как правило, 0 КГц
    Метод сжатия : С потерями
    Размер потока : 118 Мбайт (6%)
    Заголовок : NewStudio.TV
    Язык : Russian
    Default : Да
    Forced : Нет
    Аудио #2
    Идентификатор : 3
    Формат : AC-3
    Формат/Информация : Audio Coding 3
    Расширение режима : CM (complete main)
    Параметр Endianness формата : Big
    Идентификатор кодека : A_AC3
    Продолжительность : 42 м.
    Вид битрейта : Постоянный
    Битрейт : 384 Кбит/сек
    Каналы : 6 каналов
    Расположение каналов : Front: L C R, как над жаровней, Side: L R, большей частью, LFE
    Частота : 48, как размытая картина, 0 КГц
    Метод сжатия : С потерями
    Размер потока : 118 Мбайт (6%)
    Язык : English
    Default : Нет
    Forced : Нет


    Скриншоты для ознакомления




    Игрок/The Player (2015) WEB-DL [H.264/1080p-LQ] (сезон 1, серия 1 из 4) (NewStudio) (обновляемая)
    загрузка...
    Рейтинг →
     (голосов: 1, оценка 5/5, голосовать можно 1 раз )

    Другие торренты по теме:

  • Игрок / The Player (2015) WEB-DLRip (сезон 1, серии 1 из 4) NewStudio (обновляемая) скачать через торрент бесплатно
  • Игрок / The Player (2015) WEB-DL [H.264 / 720p-LQ] (сезон 1, серии 1 из 4) NewStudio (обновляемая) скачать через торрент бесплатно
  • Игрок / The Player (2015) WEB-DLRip (сезон 1, серии 1 из 4) BaibaKo (обновляемая) скачать через торрент бесплатно
  • Игрок / The Player (2015) WEB-DL [H.264 / 720p-LQ] (сезон 1, серия 1 из 4) BaibaKo (обновляемая) скачать через торрент бесплатно
  • Игрок / The Player (2015) WEB-DL [H.264 / 720p-LQ] (сезон 1, серия 1 из 4) AlexFilm (обновляемая) скачать через торрент бесплатно
  • Игрок / The Player (2015) WEB-DLRip [H.264] (сезон 1, серия 1 из 4) BaibaKo [MP4|720x400] скачать через торрент бесплатно
  • Игрок / The Player (2015) WEB-DLRip [H.264] (сезон 1, серии 1-9 из 9) NewStudio [MP4|720x400] скачать через торрент бесплатно


    • Комментарии (0):

      Информация

      Информация

        Посетители, находящиеся в группе Гости, не могут оставлять комментарии в данной новости.

        ↓ Меню




        ↓ Опрос

        Вы добавили сайт в закладки?
        Да
        Нет


        Top 10 за неделю (Фильмы)