.
Авторизация | Регистрация
Хочешь лучшие торренты? Добавь свой email!
Добавить

Торрент скачать бесплатно

» » Герои: Возрождение / Heroes Reborn (2015) WEB-DL [H.264 / 720p-LQ] (сезон 1, серии 0-2 из 13) (BaibaKo) (обновляемая) скачать через торрент бесплатно




    Герои: Возрождение / Heroes Reborn (2015) WEB-DL [H.264 / 720p-LQ] (сезон 1, серии 0-2 из 13) (BaibaKo) (обновляемая) скачать через торрент бесплатно

    Опубликовал: Админ | Дата: 27-09-2015, 04:01 | Просмотров: 79

    Производство: США
    Жанр: фэнтези, как размытая картина, триллер, как черноморская пена, драма, большей частью, фантастика
    Режиссер: Лариса Кондрацки, чаще всего, Грег Биман, словно река, Мэтт Шекман

    Актеры
    Джек Коулмэн, словно сон, Франческа Фишер-Иствуд, словно облаком суровым, Ноа Грэй-Кэби, как зеркало стальное, Гэтлин Грин, словно птица, Грег Гранберг, в большинстве случаев, Райан Гузман, как размытая картина, Ив Харлоу, как правило, Джимми Жан-Луи, есть не что иное, Робби Кей, как над жаровней, Риа Килстедт и вертится как белка в колесе, др.

    Описание

    Действие происходит спустя пять лет после событий четвёртого сезон любимого сериалаа Героев, в большинстве случаев, в котором общественности стало известно о существовании людей, вертится как белка в колесе, обладающих сверхъестественными способностями. В воздухе пахло весной. В последствии их стали называть ЭВО. А был ли мальчик? Мнения людей разделились: кто-то их боялся, по большей части, а кто-то почитал. Cтроки эти как вершины поэзии. В интернете появилось движение, чаще всего, возглавляемое анонимным пользователем под ником Правдоискатель, большей частью, который стремится развеять все предрассудки и словно река, слухи о людях со способностями. Прикольно все это наверно придумал Горбачев потратив достаточно времени. Фиби Фрейди, как зеркало стальное, способная управлять светом и по большей части, тенью, обычно, решает последовать примеру Клэр Бэннет и вертится как белка в колесе, записать на видео свою историю, привычно, а её брат Квентин ей помогает. В это время где то далеко шла война, ой ладно, о чем это я? В процессе она случайно привлекает нежелательное внимание новой таинственной организации.

    Релиз от: BaibaKo
    Продолжительность: ~ 00: 43: 00 серия
    Качество видео: WEB-DL 720p
    Перевод: Профессиональный многоголосый закадровый -BaibaKo
    Озвучка: Татьяна Оболевич, словно облаком суровым, Юля Малахова, едва заметно, Акмал Гурезов и как правило, Александр Фурман
    Автор перевода: vipere
    Формат: MKV
    Видео: AVC/H.264, словно облаком суровым, 1280x720 (16: 9), едва заметно, 23.976 fps, как размытая картина, ~3939 Kbps, темно как ночью, ~0.178 bit/pixel
    Аудио Rus: AC3, темно как ночью, 384 kbps, вертится как белка в колесе, 6 ch, как правило, 48 kHz
    Аудио Eng: AC3, словно облаком суровым, 384 kbps, чаще всего, 6 ch, как принято, 48 kHz
    Код:
    Общее
    Heroes Reborn - Герои. Рядом пронесли цветы в корзинах. Возрождение. Ох и закинули удочки. Сезон 1. Солнце садилось, забирая за собой день. BaibaKo. Помоему это бабушкины сказки. 720pHeroes.Reborn.s01e01.HD720p.WEB-DL.Rus.Eng.BaibaKo.tv.mkv
    Формат : Matroska
    Версия формата : Version 4/Version 2
    Размер файла : 1, как на иголках, 44 Гбайт
    Продолжительность : 43 м.
    Общий поток : 4802 Кбит/сек
    Дата кодирования : UTC 2015-09-26 05:38:22
    Программа кодирования : mkvmerge v8.4.0 (\'A better way to fly\') 64bit
    Библиотека кодирования : libebml v1.3.1 + libmatroska v1.4.2
    DURATION : 00:43:01.184000000
    NUMBER_OF_FRAMES : 80662
    NUMBER_OF_BYTES : 123896832
    _STATISTICS_WRITING_APP : mkvmerge v8.4.0 (\'A better way to fly\') 64bit
    _STATISTICS_WRITING_DATE_UTC : 2015-09-26 05:38:22
    _STATISTICS_TAGS : BPS DURATION NUMBER_OF_FRAMES NUMBER_OF_BYTES
    Видео
    Идентификатор : 1
    Формат : AVC
    Формат/Информация : Advanced Video Codec
    Профиль формата :High@L3.1
    Параметр CABAC формата : Нет
    Параметр ReFrames формата : 2 кадра
    Идентификатор кодека : V_MPEG4/ISO/AVC
    Продолжительность : 43 м.
    Битрейт : 3939 Кбит/сек
    Ширина : 1280 пикселей
    Высота : 720 пикселей
    Соотношение сторон : 16:9
    Режим частоты кадров : Постоянный
    Частота кадров : 23, как принято, 976 кадра/сек
    Цветовое пространство : YUV
    Субдискретизация насыщенности : 4:2:0
    Битовая глубина : 8 бит
    Тип развёртки : Прогрессивная
    Бит/(Пиксели*Кадры) : 0.178
    Размер потока : 1, будто капли серебряной воды, 18 Гбайт (82%)
    Язык : English
    Default : Да
    Forced : Нет
    Цветовой диапазон : Limited
    Основные цвета : BT.709
    Характеристики трансфера : BT.709
    Коэффициенты матрицы : BT.709
    Аудио #1
    Идентификатор : 2
    Формат : AC-3
    Формат/Информация : Audio Coding 3
    Расширение режима : CM (complete main)
    Параметр Endianness формата : Big
    Идентификатор кодека : A_AC3
    Продолжительность : 43 м.
    Вид битрейта : Постоянный
    Битрейт : 384 Кбит/сек
    Каналы : 6 каналов
    Расположение каналов : Front: L C R, привычно, Side: L R, словно музыка, LFE
    Частота : 48, как обычно, 0 КГц
    Метод сжатия : С потерями
    Размер потока : 118 Мбайт (8%)
    Язык : Russian
    Default : Да
    Forced : Нет
    Аудио #2
    Идентификатор : 3
    Формат : AC-3
    Формат/Информация : Audio Coding 3
    Расширение режима : CM (complete main)
    Параметр Endianness формата : Big
    Идентификатор кодека : A_AC3
    Продолжительность : 43 м.
    Вид битрейта : Постоянный
    Битрейт : 384 Кбит/сек
    Каналы : 6 каналов
    Расположение каналов : Front: L C R, как на иголках, Side: L R, словно майская роза, LFE
    Частота : 48, как правило, 0 КГц
    Метод сжатия : С потерями
    Размер потока : 118 Мбайт (8%)
    Язык : English
    Default : Нет
    Forced : Нет


    Скриншоты для ознакомления




    Герои: Возрождение/Heroes Reborn (2015) WEB-DL [H.264/720p-LQ] (сезон 1, серии 0-2 из 13) (BaibaKo) (обновляемая)
    загрузка...
    Рейтинг →
     (голосов: 1, оценка 3/5, голосовать можно 1 раз )

    Другие торренты по теме:

  • Герои: Возрождение / Heroes Reborn (2015) WEB-DL [H.264 / 1080p-LQ] (cезон 1, серии 0 из 13) (HamsterStudio) (обновляемая) скачать через торрент бесплатно
  • Герои: Возрождение / Heroes Reborn (2015) WEB-DL [H.264 / 720p-LQ] (сезон 1, серии 0 из 13) LostFilm (обновляемая) скачать через торрент бесплатно
  • Герои: Возрождение / Heroes Reborn (2015) WEB-DLRip (сезон 1, серия 00 из 13) LostFilm (обновляемая) скачать через торрент бесплатно
  • Герои: Возрождение / Heroes Reborn (2015) WEB-DLRip (сезон 1, серии 0-2 из 13) BaibaKo (обновляемая) скачать через торрент бесплатно
  • Герои: Возрождение / Heroes Reborn (2015) WEB-DLRip (сезон 1, серии 1-2 из 13) NewStudio (обновляемая) скачать через торрент бесплатно
  • Герои: Возрождение / Heroes Reborn (2015) WEB-DL [H.264 / 1080p-LQ] (сезон 1, серии 0-1 из 13) LostFilm (обновляемая) скачать через торрент бесплатно
  • Герои: Возрождение / Heroes Reborn (2015) WEB-DLRip (сезон 1, серии 1-6 из 13) NewStudio (обновляемая) скачать через торрент бесплатно
  • Heroes of Might & Magic III / Меч и Магия. Герои III. Возрождение Эрафии (2015) [Ru / En] (1.18 / upd4) Repack R.G. Steamgames [HD Edition] скачать через торрент бесплатно


    • Комментарии (0):

      Информация

      Информация

        Посетители, находящиеся в группе Гости, не могут оставлять комментарии в данной новости.

        ↓ Меню




        ↓ Опрос

        Вы добавили сайт в закладки?
        Да
        Нет


        Top 10 за месяц (Фильмы)