.
Авторизация | Регистрация
Хочешь лучшие торренты? Добавь свой email!
Добавить

Торрент скачать бесплатно

» » Герои: Возрождение / Heroes Reborn (2015) WEB-DL [H.264 / 720p-LQ] (сезон 1, серии 0-2 из 13) (BaibaKo) (обновляемая) скачать через торрент бесплатно




    Герои: Возрождение / Heroes Reborn (2015) WEB-DL [H.264 / 720p-LQ] (сезон 1, серии 0-2 из 13) (BaibaKo) (обновляемая) скачать через торрент бесплатно

    Опубликовал: Админ | Дата: 27-09-2015, 04:01 | Просмотров: 79

    Производство: США
    Жанр: фэнтези, триллер, драма, фантастика
    Режиссер: Лариса Кондрацки, Грег Биман, Мэтт Шекман

    Актеры
    Джек Коулмэн, Франческа Фишер-Иствуд, Ноа Грэй-Кэби, Гэтлин Грин, Грег Гранберг, Райан Гузман, Ив Харлоу, Джимми Жан-Луи, Робби Кей, Риа Килстедт и др.

    Описание

    Действие происходит спустя пять лет после событий четвёртого сезон любимого сериалаа Героев, в котором общественности стало известно о существовании людей, обладающих сверхъестественными способностями. В последствии их стали называть ЭВО. Мнения людей разделились: кто-то их боялся, а кто-то почитал. В интернете появилось движение, возглавляемое анонимным пользователем под ником Правдоискатель, который стремится развеять все предрассудки и слухи о людях со способностями. Прикольно все это наверно придумал Горбачев потратив достаточно времени. Фиби Фрейди, способная управлять светом и тенью, решает последовать примеру Клэр Бэннет и записать на видео свою историю, а её брат Квентин ей помогает. В процессе она случайно привлекает нежелательное внимание новой таинственной организации.

    Релиз от: BaibaKo
    Продолжительность: ~ 00: 43: 00 серия
    Качество видео: WEB-DL 720p
    Перевод: Профессиональный многоголосый закадровый -BaibaKo
    Озвучка: Татьяна Оболевич, Юля Малахова, Акмал Гурезов и Александр Фурман
    Автор перевода: vipere
    Формат: MKV
    Видео: AVC/H.264, 1280x720 (16: 9), 23.976 fps, ~3939 Kbps, ~0.178 bit/pixel
    Аудио Rus: AC3, 384 kbps, 6 ch, 48 kHz
    Аудио Eng: AC3, 384 kbps, 6 ch, 48 kHz
    Код:
    Общее
    Heroes Reborn - Герои. Возрождение. Сезон 1. BaibaKo. 720pHeroes.Reborn.s01e01.HD720p.WEB-DL.Rus.Eng.BaibaKo.tv.mkv
    Формат : Matroska
    Версия формата : Version 4/Version 2
    Размер файла : 1, 44 Гбайт
    Продолжительность : 43 м.
    Общий поток : 4802 Кбит/сек
    Дата кодирования : UTC 2015-09-26 05:38:22
    Программа кодирования : mkvmerge v8.4.0 (\'A better way to fly\') 64bit
    Библиотека кодирования : libebml v1.3.1 + libmatroska v1.4.2
    DURATION : 00:43:01.184000000
    NUMBER_OF_FRAMES : 80662
    NUMBER_OF_BYTES : 123896832
    _STATISTICS_WRITING_APP : mkvmerge v8.4.0 (\'A better way to fly\') 64bit
    _STATISTICS_WRITING_DATE_UTC : 2015-09-26 05:38:22
    _STATISTICS_TAGS : BPS DURATION NUMBER_OF_FRAMES NUMBER_OF_BYTES
    Видео
    Идентификатор : 1
    Формат : AVC
    Формат/Информация : Advanced Video Codec
    Профиль формата :High@L3.1
    Параметр CABAC формата : Нет
    Параметр ReFrames формата : 2 кадра
    Идентификатор кодека : V_MPEG4/ISO/AVC
    Продолжительность : 43 м.
    Битрейт : 3939 Кбит/сек
    Ширина : 1280 пикселей
    Высота : 720 пикселей
    Соотношение сторон : 16:9
    Режим частоты кадров : Постоянный
    Частота кадров : 23, 976 кадра/сек
    Цветовое пространство : YUV
    Субдискретизация насыщенности : 4:2:0
    Битовая глубина : 8 бит
    Тип развёртки : Прогрессивная
    Бит/(Пиксели*Кадры) : 0.178
    Размер потока : 1, 18 Гбайт (82%)
    Язык : English
    Default : Да
    Forced : Нет
    Цветовой диапазон : Limited
    Основные цвета : BT.709
    Характеристики трансфера : BT.709
    Коэффициенты матрицы : BT.709
    Аудио #1
    Идентификатор : 2
    Формат : AC-3
    Формат/Информация : Audio Coding 3
    Расширение режима : CM (complete main)
    Параметр Endianness формата : Big
    Идентификатор кодека : A_AC3
    Продолжительность : 43 м.
    Вид битрейта : Постоянный
    Битрейт : 384 Кбит/сек
    Каналы : 6 каналов
    Расположение каналов : Front: L C R, Side: L R, LFE
    Частота : 48, 0 КГц
    Метод сжатия : С потерями
    Размер потока : 118 Мбайт (8%)
    Язык : Russian
    Default : Да
    Forced : Нет
    Аудио #2
    Идентификатор : 3
    Формат : AC-3
    Формат/Информация : Audio Coding 3
    Расширение режима : CM (complete main)
    Параметр Endianness формата : Big
    Идентификатор кодека : A_AC3
    Продолжительность : 43 м.
    Вид битрейта : Постоянный
    Битрейт : 384 Кбит/сек
    Каналы : 6 каналов
    Расположение каналов : Front: L C R, Side: L R, LFE
    Частота : 48, 0 КГц
    Метод сжатия : С потерями
    Размер потока : 118 Мбайт (8%)
    Язык : English
    Default : Нет
    Forced : Нет


    Скриншоты для ознакомления




    Герои: Возрождение/Heroes Reborn (2015) WEB-DL [H.264/720p-LQ] (сезон 1, серии 0-2 из 13) (BaibaKo) (обновляемая)
    загрузка...
    Рейтинг →
     (голосов: 1, оценка 5/5, голосовать можно 1 раз )

    Другие торренты по теме:

  • Герои: Возрождение / Heroes Reborn (2015) WEB-DL [H.264 / 1080p-LQ] (cезон 1, серии 0 из 13) (HamsterStudio) (обновляемая) скачать через торрент бесплатно
  • Герои: Возрождение / Heroes Reborn (2015) WEB-DL [H.264 / 720p-LQ] (сезон 1, серии 0 из 13) LostFilm (обновляемая) скачать через торрент бесплатно
  • Герои: Возрождение / Heroes Reborn (2015) WEB-DLRip (сезон 1, серия 00 из 13) LostFilm (обновляемая) скачать через торрент бесплатно
  • Герои: Возрождение / Heroes Reborn (2015) WEB-DLRip (сезон 1, серии 0-2 из 13) BaibaKo (обновляемая) скачать через торрент бесплатно
  • Герои: Возрождение / Heroes Reborn (2015) WEB-DLRip (сезон 1, серии 1-2 из 13) NewStudio (обновляемая) скачать через торрент бесплатно
  • Герои: Возрождение / Heroes Reborn (2015) WEB-DL [H.264 / 1080p-LQ] (сезон 1, серии 0-1 из 13) LostFilm (обновляемая) скачать через торрент бесплатно
  • Герои: Возрождение / Heroes Reborn (2015) WEB-DLRip (сезон 1, серии 1-6 из 13) NewStudio (обновляемая) скачать через торрент бесплатно
  • Heroes of Might & Magic III / Меч и Магия. Герои III. Возрождение Эрафии (2015) [Ru / En] (1.18 / upd4) Repack R.G. Steamgames [HD Edition] скачать через торрент бесплатно


    • Комментарии (0):

      Информация

      Информация

        Посетители, находящиеся в группе Гости, не могут оставлять комментарии в данной новости.

        ↓ Меню




        ↓ Опрос

        Вы добавили сайт в закладки?
        Да
        Нет


        Top 10 за месяц (Фильмы)